Торрент файл
скачать торрент магнет ссылка Добавлен: 22 окт 2017, 11:38
Размер: 4.62 ГБ
Сидеров: 24
Личеров: 9
Статус: (salma3)
Автор

СообщениеДобавлено: 22 окт 2017, 11:38 

Не в сети
Супермодератор
Аватара пользователя
Дата регистрации:
15 фев 2012, 16:44
Возраст: 28
Спасибо: 6644 / 2146
Сообщения: 45843
Год выхода: 1986
Жанр: триллер, криминал, детектив
Режиссер: Майкл Манн

В ролях: Уильям Л. Питерсен, Ким Грайст, Джоан Аллен, Брайан Кокс, Деннис Фарина, Том Нунен, Стивен Лэнг, Дэвид Симан, Бенджамин Хендриксон, Майкл Толбот

О фильме:
«Охотник на людей» — это завораживающее преследование маньяка-убийцы, получившего прозвище «Зубная фея». Идущий по следам этого опаснейшего преступника агент ФБР вынужден использовать единственный способ поиска: сотрудничая с доктором Ганнибалом Лектером, заключенным в тюремную психбольницу, он должен «войти» в кошмарный внутренний мир убийцы…



Страна: США
Продолжительность: 02:00:05
Перевод: Многоголосый закадровый

Файл
Кодек: HEVC x265 8bit
Качество: BDRip-HEVC 1080p
Видео: 1920x816, 23.976 кадр/сек, 4673 Кбит/сек, 8bit
Звук:
Аудио1: Русская, AC3 448 Кбит/сек, 6 канала(ов),16bit 48,0 КГц
Аудио2: English, AC3 384 Кбит/сек, 6 канала(ов),16bit 48,0 КГц
Субтитры: Языки и типы субтитров

General
Unique ID : 201618440731629646543072033731181444613 (0x97AE4C9AA307B75DB92A38C4E0C67E05)
Format : Matroska
Format version : Version 4 / Version 2
File size : 4.62 GiB
Duration : 2 h 0 min
Overall bit rate : 5 507 kb/s
Movie name : Manhunter (1986) BDRip 1080p [HEVC]_rip_by_Cthulhu
Encoded date : UTC 2017-10-21 16:54:29
Writing application : mkvmerge v13.0.0 ('The Juggler') 64bit
Writing library : libebml v1.3.4 + libmatroska v1.4.5
Cover : Yes
Attachments : cover3.jpg

Video
ID : 1
Format : HEVC
Format/Info : High Efficiency Video Coding
Format profile : Main@L4.1@High
Codec ID : V_MPEGH/ISO/HEVC
Duration : 2 h 0 min
Bit rate : 4 673 kb/s
Width : 1 920 pixels
Height : 816 pixels
Display aspect ratio : 2.35:1
Frame rate mode : Constant
Frame rate : 23.976 (24000/1001) FPS
Color space : YUV
Chroma subsampling : 4:2:0
Bit depth : 8 bits
Bits/(Pixel*Frame) : 0.124
Stream size : 3.92 GiB (85%)
Writing library : x265 2.5+27-0e168bdeb48b:[Windows][GCC 7.1.0][64 bit] 8bit
Encoding settings : cpuid=1050111 / frame-threads=5 / numa-pools=4 / wpp / no-pmode / no-pme / no-psnr / no-ssim / log-level=3 / input-csp=1 / input-res=1920x816 / interlace=0 / total-frames=0 / level-idc=41 / high-tier=1 / uhd-bd=0 / ref=4 / no-allow-non-conformance / no-repeat-headers / annexb / no-aud / no-hrd / info / hash=0 / no-temporal-layers / open-gop / min-keyint=23 / keyint=250 / bframes=10 / b-adapt=2 / b-pyramid / bframe-bias=0 / rc-lookahead=40 / lookahead-slices=5 / scenecut=40 / no-intra-refresh / ctu=64 / min-cu-size=8 / no-rect / no-amp / max-tu-size=32 / tu-inter-depth=2 / tu-intra-depth=2 / limit-tu=0 / rdoq-level=0 / dynamic-rd=0.00 / no-ssim-rd / signhide / no-tskip / nr-intra=0 / nr-inter=0 / no-constrained-intra / strong-intra-smoothing / max-merge=3 / limit-refs=3 / no-limit-modes / me=2 / subme=6 / merange=32 / temporal-mvp / weightp / weightb / no-analyze-src-pics / deblock=-3:-3 / no-sao / no-sao-non-deblock / rd=3 / no-early-skip / rskip / no-fast-intra / no-tskip-fast / no-cu-lossless / no-b-intra / no-splitrd-skip / rdpenalty=0 / psy-rd=2.00 / psy-rdoq=0.00 / no-rd-refine / analysis-reuse-mode=0 / no-lossless / cbqpoffs=0 / crqpoffs=0 / rc=crf / crf=19.0 / qcomp=0.60 / qpstep=4 / stats-write=0 / stats-read=0 / vbv-maxrate=50000 / vbv-bufsize=35714 / vbv-init=0.9 / crf-max=30.0 / crf-min=0.0 / ipratio=1.40 / pbratio=1.30 / aq-mode=3 / aq-strength=1.00 / cutree / zone-count=0 / no-strict-cbr / qg-size=32 / no-rc-grain / qpmax=69 / qpmin=0 / no-const-vbv / sar=1 / overscan=0 / videoformat=5 / range=0 / colorprim=1 / transfer=1 / colormatrix=1 / chromaloc=0 / display-window=0 / max-cll=0,0 / min-luma=0 / max-luma=255 / log2-max-poc-lsb=8 / vui-timing-info / vui-hrd-info / slices=1 / opt-qp-pps / opt-ref-list-length-pps / no-multi-pass-opt-rps / scenecut-bias=0.05 / no-opt-cu-delta-qp / no-aq-motion / no-hdr / no-hdr-opt / no-dhdr10-opt / analysis-reuse-level=5 / scale-factor=0 / refine-intra=0 / refine-inter=0 / refine-mv=0 / no-limit-sao / ctu-info=0
Language : English
Default : Yes
Forced : No
Color range : Limited
Color primaries : BT.709
Transfer characteristics : BT.709
Matrix coefficients : BT.709

Audio #1
ID : 2
Format : AC-3
Format/Info : Audio Coding 3
Format settings, Endianness : Big
Codec ID : A_AC3
Duration : 2 h 0 min
Bit rate mode : Constant
Bit rate : 448 kb/s
Channel(s) : 6 channels
Channel positions : Front: L C R, Side: L R, LFE
Sampling rate : 48.0 kHz
Frame rate : 31.250 FPS (1536 SPF)
Bit depth : 16 bits
Compression mode : Lossy
Delay relative to video : 2 s 100 ms
Stream size : 385 MiB (8%)
Language : Russian
Service kind : Complete Main
Default : Yes
Forced : No

Audio #2
ID : 3
Format : AC-3
Format/Info : Audio Coding 3
Format settings, Endianness : Big
Codec ID : A_AC3
Duration : 2 h 0 min
Bit rate mode : Constant
Bit rate : 384 kb/s
Channel(s) : 6 channels
Channel positions : Front: L C R, Side: L R, LFE
Sampling rate : 48.0 kHz
Frame rate : 31.250 FPS (1536 SPF)
Bit depth : 16 bits
Compression mode : Lossy
Delay relative to video : 2 s 100 ms
Stream size : 330 MiB (7%)
Language : English
Service kind : Complete Main
Default : No
Forced : No


Релиз от: Cthulhu


_________________
Проголосуй за трекер Открытый торрент трекер - RUS-MEDIA.ORG

Проголосуй Открытый торрент трекер - RUS-MEDIA.ORG



реклама партнёра


Вернуться к началу
 Профиль Отправить личное сообщение  
 
   Похожие торренты   Автор   Торрент   Размер 
В этой теме нет новых непрочитанных сообщений. Чужие / Aliens [ужасы, фантастика, боевик, триллер, 1986] BDRip-HEVC 1080p, Dub [Special Edition]

salma3

17 | 7

20.59 ГБ

В этой теме нет новых непрочитанных сообщений. Восход «Черной луны» / Black Moon Rising [Боевик, фантастика, триллер, 1986] BDRip-HEVC 1080p, Dub

salma3

0 | 0

8.96 ГБ

В этой теме нет новых непрочитанных сообщений. Все вещи для всех людей / All Things to All Men [триллер, криминал, 2013] BDRip 1080p, avo+sub

Dracon

71 | 4

6.63 ГБ

В этой теме нет новых непрочитанных сообщений. Синий бархат / Blue Velvet [триллер, драма, криминал, детектив, 1986] BDRip 1080p, dvo+avo+sub

salma3

69 | 2

13.62 ГБ

В этой теме нет новых непрочитанных сообщений. Закон Мерфи / Murphy's Law [боевик, триллер, драма, криминал, детектив, 1986] BDRip 1080p, , Mvo+3Avo+Sub

salma3

76 | 21

7.64 ГБ

В этой теме нет новых непрочитанных сообщений. Ганнибал / Hannibal [Детектив, триллер, 2001] BDRip-HEVC 1080p, Dub [лицензия]

salma3

36 | 8

5.64 ГБ

В этой теме нет новых непрочитанных сообщений. Готика / Gothika [триллер, ужасы, детектив, 2003] BDRip-HEVC 1080p, Dub

salma3

37 | 9

4.23 ГБ


Начать новую тему Ответить на тему  [ 1 сообщение ] 




Для Мосгорсуда, Роскомнадзора и рекламодателей:: mosgorsud-torrent[собачка]yandex.ru