Торрент файл
скачать торрент магнет ссылка Добавлен: 22 окт 2017, 11:36
Размер: 12.21 ГБ
Сидеров: 33
Личеров: 27
Статус: (salma3)
Автор

СообщениеДобавлено: 22 окт 2017, 11:36 

Не в сети
Супермодератор
Аватара пользователя
Дата регистрации:
15 фев 2012, 16:44
Возраст: 28
Спасибо: 7223 / 2147
Сообщения: 67788
Год выхода: 1990
Жанр: драма, приключения, вестерн
Режиссер: Кевин Костнер

В ролях: Кевин Костнер, Мэри МакДоннелл, Грэм Грин, Родни А. Грант, Флойд «Ред Кроу» Уэстермен, Танту Кардинал, Роберт Пасторелли, Чарльз Роккет, Мори Чайкин, Джимми Херман

О фильме:
"Танцующий с волками" - такое имя дали индейцы племени Сиу лейтенанту Джону Данбару за его храбрость и честность. Действие фильма происходит в XIX веке, во время гражданской войны в США. Данбар оказывается в заброшенном форте в штате Дакота, где сначала заводит дружбу с волками, а затем и с индейцами, изучает их культуру и обычаи. Он влюбляется в девушку, правда, белую. Но вот приближается регулярная армия, и Данбару приходится делать решающий выбор.



Страна: США
Продолжительность: 03:53:49
Перевод: Профессиональный многоголосый закадровый, оригинал

Файл
Кодек: HEVC x265 8bit
Качество: BDRip-HEVC 1080p
Видео: 1920x812, 23.976 кадр/сек, 6131 Кбит/сек, 8bit
Звук:
Аудио1: Русская, AC3 448 Кбит/сек, 6 канала(ов),16bit 48,0 КГц (Позитив-Мультимедиа)
Аудио2: Русская, AC3 448 Кбит/сек, 6 канала(ов),16bit 48,0 КГц (R5)
Аудио3: English, AC3 448 Кбит/сек, 6 канала(ов),16bit 48,0 КГц
Субтитры: Русские форсированные на речь СИУ, русские полные, English

General
Unique ID : 174159092436023550569966368343406130379 (0x8305D234FC1D5450935CA0A856EBB4CB)
Format : Matroska
Format version : Version 4 / Version 2
File size : 12.2 GiB
Duration : 3 h 53 min
Overall bit rate : 7 477 kb/s
Encoded date : UTC 2017-08-29 15:30:12
Writing application : mkvmerge v13.0.0 ('The Juggler') 64bit
Writing library : libebml v1.3.4 + libmatroska v1.4.5
Cover : Yes
Attachments : cover2.jpg

Video
ID : 1
Format : HEVC
Format/Info : High Efficiency Video Coding
Format profile : Main@L4.1@High
Codec ID : V_MPEGH/ISO/HEVC
Duration : 3 h 53 min
Bit rate : 6 131 kb/s
Width : 1 920 pixels
Height : 812 pixels
Display aspect ratio : 2.35:1
Frame rate mode : Constant
Frame rate : 23.976 (24000/1001) FPS
Color space : YUV
Chroma subsampling : 4:2:0
Bit depth : 8 bits
Bits/(Pixel*Frame) : 0.164
Stream size : 10.0 GiB (82%)
Writing library : x265 2.5+9-fdf39a97ecb8:[Windows][GCC 7.1.0][64 bit] 8bit
Encoding settings : cpuid=1050111 / frame-threads=5 / numa-pools=4 / wpp / no-pmode / no-pme / no-psnr / no-ssim / log-level=3 / input-csp=1 / input-res=1920x812 / interlace=0 / total-frames=0 / level-idc=41 / high-tier=1 / uhd-bd=0 / ref=4 / no-allow-non-conformance / no-repeat-headers / annexb / no-aud / no-hrd / info / hash=0 / no-temporal-layers / open-gop / min-keyint=23 / keyint=240 / bframes=12 / b-adapt=2 / b-pyramid / bframe-bias=0 / rc-lookahead=40 / lookahead-slices=5 / scenecut=40 / no-intra-refresh / ctu=64 / min-cu-size=8 / no-rect / no-amp / max-tu-size=32 / tu-inter-depth=2 / tu-intra-depth=2 / limit-tu=0 / rdoq-level=0 / dynamic-rd=0.00 / no-ssim-rd / signhide / no-tskip / nr-intra=0 / nr-inter=0 / no-constrained-intra / strong-intra-smoothing / max-merge=3 / limit-refs=3 / no-limit-modes / me=3 / subme=6 / merange=32 / temporal-mvp / weightp / weightb / no-analyze-src-pics / deblock=-3:-3 / no-sao / no-sao-non-deblock / rd=3 / no-early-skip / rskip / no-fast-intra / no-tskip-fast / no-cu-lossless / no-b-intra / rdpenalty=0 / psy-rd=2.00 / psy-rdoq=0.00 / no-rd-refine / analysis-reuse-mode=0 / no-lossless / cbqpoffs=0 / crqpoffs=0 / rc=crf / crf=18.5 / qcomp=0.60 / qpstep=4 / stats-write=0 / stats-read=0 / vbv-maxrate=50000 / vbv-bufsize=35714 / vbv-init=0.9 / crf-max=30.0 / crf-min=0.0 / ipratio=1.40 / pbratio=1.30 / aq-mode=1 / aq-strength=1.00 / cutree / zone-count=0 / no-strict-cbr / qg-size=32 / no-rc-grain / qpmax=69 / qpmin=0 / no-const-vbv / sar=1 / overscan=0 / videoformat=5 / range=0 / colorprim=1 / transfer=1 / colormatrix=1 / chromaloc=0 / display-window=0 / max-cll=0,0 / min-luma=0 / max-luma=255 / log2-max-poc-lsb=8 / vui-timing-info / vui-hrd-info / slices=1 / opt-qp-pps / opt-ref-list-length-pps / no-multi-pass-opt-rps / scenecut-bias=0.05 / no-opt-cu-delta-qp / no-aq-motion / no-hdr / no-hdr-opt / no-dhdr10-opt / analysis-reuse-level=5 / scale-factor=0 / refine-intra=0 / refine-inter=0 / refine-mv=0 / no-limit-sao / ctu-info=0
Language : English
Default : Yes
Forced : No
Color range : Limited
Color primaries : BT.709
Transfer characteristics : BT.709
Matrix coefficients : BT.709

Audio #1
ID : 2
Format : AC-3
Format/Info : Audio Coding 3
Format settings, Endianness : Big
Codec ID : A_AC3
Duration : 3 h 53 min
Bit rate mode : Constant
Bit rate : 448 kb/s
Channel(s) : 6 channels
Channel positions : Front: L C R, Side: L R, LFE
Sampling rate : 48.0 kHz
Frame rate : 31.250 FPS (1536 SPF)
Bit depth : 16 bits
Compression mode : Lossy
Stream size : 749 MiB (6%)
Title : MVO Позитив-Мультимедиа
Language : Russian
Service kind : Complete Main
Default : Yes
Forced : No

Audio #2
ID : 3
Format : AC-3
Format/Info : Audio Coding 3
Format settings, Endianness : Big
Codec ID : A_AC3
Duration : 3 h 53 min
Bit rate mode : Constant
Bit rate : 448 kb/s
Channel(s) : 6 channels
Channel positions : Front: L C R, Side: L R, LFE
Sampling rate : 48.0 kHz
Frame rate : 31.250 FPS (1536 SPF)
Bit depth : 16 bits
Compression mode : Lossy
Stream size : 749 MiB (6%)
Title : MVO R5
Language : Russian
Service kind : Complete Main
Default : No
Forced : No

Audio #3
ID : 4
Format : AC-3
Format/Info : Audio Coding 3
Format settings, Endianness : Big
Codec ID : A_AC3
Duration : 3 h 53 min
Bit rate mode : Constant
Bit rate : 448 kb/s
Channel(s) : 6 channels
Channel positions : Front: L C R, Side: L R, LFE
Sampling rate : 48.0 kHz
Frame rate : 31.250 FPS (1536 SPF)
Bit depth : 16 bits
Compression mode : Lossy
Stream size : 749 MiB (6%)
Language : English
Service kind : Complete Main
Default : No
Forced : No

Text #1
ID : 5
Format : UTF-8
Codec ID : S_TEXT/UTF8
Codec ID/Info : UTF-8 Plain Text
Duration : 3 h 3 min
Bit rate : 14 b/s
Count of elements : 392
Stream size : 19.9 KiB (0%)
Title : русские на речь племени СИУ
Language : Russian
Default : Yes
Forced : Yes

Text #2
ID : 6
Format : UTF-8
Codec ID : S_TEXT/UTF8
Codec ID/Info : UTF-8 Plain Text
Duration : 3 h 47 min
Bit rate : 38 b/s
Count of elements : 1324
Stream size : 64.3 KiB (0%)
Title : русские полные
Language : Russian
Default : No
Forced : No

Text #3
ID : 7
Format : UTF-8
Codec ID : S_TEXT/UTF8
Codec ID/Info : UTF-8 Plain Text
Duration : 3 h 47 min
Bit rate : 25 b/s
Count of elements : 1415
Stream size : 42.0 KiB (0%)
Language : English
Default : No
Forced : No

Menu
00:00:00.000 : :Main Title/No Gangrene
00:05:01.051 : :Suicide Mission
00:11:46.664 : :A Fool's Errand
00:20:19.760 : :The Foulest Man Alive
00:26:41.350 : :"This Is My Post"
00:36:10.168 : :Clean-Up Duty
00:42:19.620 : :Killing the Messenger
00:47:22.381 : :A Friend in Two Socks
00:52:50.626 : :The Naked Soldier
00:56:54.036 : :What About the White Man?
01:03:57.208 : :Little Big Horse Thieves
01:09:49.352 : :Death of a Husband
01:11:47.595 : :"She's Hurt!"
01:19:58.961 : :Lost in the Translation
01:25:33.754 : :Remember the White Words
01:32:32.922 : :Official Introductions
01:41:53.065 : :Who Killed the Buffalo?
01:53:44.234 : :The Deep Divide
01:56:17.262 : :A Successful Hunt
02:04:32.048 : :"Good Trade"
02:13:04.226 : :Wolf Dancing
02:18:54.117 : :A Great Honor
02:27:34.846 : :The Story of the Fist
02:38:09.105 : :"I Am in Mourning"
02:42:20.814 : :A Call to Arms
02:53:02.330 : :Permission to Love
03:03:59.695 : :The Most Important Trail
03:13:15.709 : :"Turned Injun, Didn'cha?"
03:20:56.044 : :Traitor Status
03:27:34.067 : :Wolves and Other Animals
03:35:37.341 : :Parting Gifts
03:48:25.317 : :Epilogue/Credits


Релиз от: Cthulhu


_________________
Проголосуй за трекер Открытый торрент трекер - RUS-MEDIA.ORG

Проголосуй Открытый торрент трекер - RUS-MEDIA.ORG


Вернуться к началу
 Профиль Отправить личное сообщение  
 
   Похожие торренты   Автор   Торрент   Размер 
В этой теме нет новых непрочитанных сообщений. Танцующий с волками / Dances with Wolves [драма, приключения, вестерн, 1990] BDRip 1080p, Mvo [20th Anniversary Edition]

salma3

56 | 18

11.51 ГБ

В этой теме нет новых непрочитанных сообщений. День независимости / Independence Day [фантастика, боевик, приключения, 1996] BDRip-HEVC 1080p, Dub [Extended Cut] [20th Anniversary Edition]

salma3

0 | 0

8.15 ГБ

В этой теме нет новых непрочитанных сообщений. Выход Дракона / Enter the Dragon [боевик, триллер, драма, 1973] BDRip-HEVC 1080p, Dub [40th Anniversary Remastered Edition]

salma3

0 | 1

6.89 ГБ

В этой теме нет новых непрочитанных сообщений. Спартак / Spartacus [Драма, приключения, военный, история, 1960] BDRip 1080p, Dub [Anniversary Edition]

salma3

0 | 0

24.51 ГБ

В этой теме нет новых непрочитанных сообщений. Куигли в Австралии / Quigley Down Under [драма, мелодрама, приключения, вестерн, 1990] BDRip 1080p, Mvo+Dvo+Avo+Sub

salma3

27 | 5

12.99 ГБ

В этой теме нет новых непрочитанных сообщений. Великолепная семерка / The Magnificent Seven (боевик, приключения, вестерн, 2016) BDRip HEVC 1080p | Лицензия

marya111

978 | 323

9.6 ГБ

В этой теме нет новых непрочитанных сообщений. Поезд на Юму / 3:10 to Yuma [драма, криминал, приключения, вестерн, 2007] UHDRip-HEVC 1080p, Dub

salma3

0 | 0

7.4 ГБ


Начать новую тему Ответить на тему  [ 1 сообщение ] 




Для Мосгорсуда, Роскомнадзора и рекламодателей:: mosgorsud-torrent[собачка]yandex.ru
cron