Торрент файл
скачать торрент магнет ссылка Добавлен: 22 окт 2017, 11:35
Размер: 5.19 ГБ
Сидеров: 23
Личеров: 21
Статус: (salma3)
Автор

СообщениеДобавлено: 22 окт 2017, 11:35 

Не в сети
Супермодератор
Аватара пользователя
Дата регистрации:
15 фев 2012, 16:44
Возраст: 28
Спасибо: 7223 / 2147
Сообщения: 67717
Год выхода: 2004
Жанр: драма, комедия
Режиссер: Стивен Спилберг

В ролях: Том Хэнкс, Кэтрин Зета-Джонс, Стэнли Туччи, Чи МакБрайд, Диего Луна, Бэрри Шебака Хенли, Кумар Паллана, Зои Салдана, Эдди Джонс, Джуд Чикколелла, Кори Рейнольдс, Гильермо Диас, Рини Белл, Стивен Мендел, Валерий Николаев

О фильме:
Фильм рассказывает историю Виктора Наворски, отправившегося в Нью-Йорк из Восточной Европы. Пока Виктор летел в самолете, на его родине произошел государственный переворот. Оказавшись в международном аэропорту имени Джона Кеннеди с паспортом ниоткуда, он не имеет права въехать в Соединенные Штаты и должен коротать свои дни и ночи на скамейках у выхода 67, пока война в его родной стране не закончится.
Тянутся недели и месяцы, и Виктор обнаруживает, что небольшой мирок терминала может быть наполнен абсурдом, щедростью, амбициями, развлечениями, желанием сохранить свой статус, интуитивной прозорливостью и даже любовью к очаровательной стюардессе Амелии. Виктору удается завоевать симпатии всех, кроме одного человека — чиновника аэропорта Фрэнка Диксона, который считает его бюрократической ошибкой, проблемой, которую он не может контролировать, но от которой жаждет избавиться.



Страна: США
Продолжительность: 02:08:45
Перевод: Дубляж (лицензия), оригинал

Файл
Кодек: HEVC x265 8bit
Качество: BDRip-HEVC 1080p
Видео: 1920x1036, 23.976 кадр/сек, 5002 Кбит/сек, 8bit
Звук:
Аудио1: Русская, AC3 384 Кбит/сек, 6 канала(ов),16bit 48,0 КГц
Аудио2: English, AC3 384 Кбит/сек, 6 канала(ов),16bit 48,0 КГц
Субтитры: Русские, English

General
Unique ID : 224333818476200855649099093654614247415 (0xA8C51F31D64F8A8E8D2FF5DCEFAB07F7)
Format : Matroska
Format version : Version 4 / Version 2
File size : 5.19 GiB
Duration : 2 h 8 min
Overall bit rate : 5 772 kb/s
Encoded date : UTC 2017-10-09 05:56:15
Writing application : mkvmerge v13.0.0 ('The Juggler') 64bit
Writing library : libebml v1.3.4 + libmatroska v1.4.5
Cover : Yes
Attachments : cover.jpg

Video
ID : 1
Format : HEVC
Format/Info : High Efficiency Video Coding
Format profile : Main@L4.1@High
Codec ID : V_MPEGH/ISO/HEVC
Duration : 2 h 8 min
Bit rate : 5 002 kb/s
Width : 1 920 pixels
Height : 1 036 pixels
Display aspect ratio : 1.85:1
Frame rate mode : Constant
Frame rate : 23.976 (24000/1001) FPS
Color space : YUV
Chroma subsampling : 4:2:0
Bit depth : 8 bits
Bits/(Pixel*Frame) : 0.105
Stream size : 4.50 GiB (87%)
Writing library : x265 2.5+20-0967d0add97e:[Windows][GCC 7.2.0][64 bit] 8bit+10bit+12bit
Encoding settings : cpuid=1050111 / frame-threads=4 / numa-pools=4 / wpp / no-pmode / no-pme / no-psnr / no-ssim / log-level=2 / input-csp=1 / input-res=1920x1036 / interlace=0 / total-frames=0 / level-idc=41 / high-tier=1 / uhd-bd=0 / ref=4 / no-allow-non-conformance / no-repeat-headers / annexb / no-aud / no-hrd / info / hash=0 / no-temporal-layers / open-gop / min-keyint=23 / keyint=240 / bframes=8 / b-adapt=2 / b-pyramid / bframe-bias=0 / rc-lookahead=40 / lookahead-slices=6 / scenecut=40 / no-intra-refresh / ctu=64 / min-cu-size=8 / rect / no-amp / max-tu-size=32 / tu-inter-depth=2 / tu-intra-depth=2 / limit-tu=0 / rdoq-level=2 / dynamic-rd=0.00 / no-ssim-rd / signhide / no-tskip / nr-intra=0 / nr-inter=0 / no-constrained-intra / strong-intra-smoothing / max-merge=3 / limit-refs=3 / limit-modes / me=2 / subme=6 / merange=32 / temporal-mvp / weightp / weightb / no-analyze-src-pics / deblock=-3:-3 / no-sao / no-sao-non-deblock / rd=3 / no-early-skip / rskip / no-fast-intra / no-tskip-fast / no-cu-lossless / no-b-intra / no-splitrd-skip / rdpenalty=0 / psy-rd=2.00 / psy-rdoq=0.00 / no-rd-refine / analysis-reuse-mode=0 / no-lossless / cbqpoffs=0 / crqpoffs=0 / rc=crf / crf=20.0 / qcomp=0.60 / qpstep=4 / stats-write=0 / stats-read=0 / vbv-maxrate=50000 / vbv-bufsize=50000 / vbv-init=0.9 / crf-max=0.0 / crf-min=0.0 / ipratio=1.40 / pbratio=1.30 / aq-mode=1 / aq-strength=1.00 / cutree / zone-count=0 / no-strict-cbr / qg-size=32 / no-rc-grain / qpmax=69 / qpmin=0 / no-const-vbv / sar=0 / overscan=0 / videoformat=5 / range=0 / colorprim=2 / transfer=2 / colormatrix=1 / chromaloc=0 / display-window=0 / max-cll=0,0 / min-luma=0 / max-luma=255 / log2-max-poc-lsb=8 / vui-timing-info / vui-hrd-info / slices=1 / opt-qp-pps / opt-ref-list-length-pps / no-multi-pass-opt-rps / scenecut-bias=0.05 / no-opt-cu-delta-qp / aq-motion / no-hdr / no-hdr-opt / no-dhdr10-opt / analysis-reuse-level=5 / scale-factor=0 / refine-intra=0 / refine-inter=0 / refine-mv=0 / no-limit-sao / ctu-info=0
Language : English
Default : Yes
Forced : No
Color range : Limited
Matrix coefficients : BT.709

Audio #1
ID : 2
Format : AC-3
Format/Info : Audio Coding 3
Format settings, Endianness : Big
Codec ID : A_AC3
Duration : 2 h 8 min
Bit rate mode : Constant
Bit rate : 384 kb/s
Channel(s) : 6 channels
Channel positions : Front: L C R, Side: L R, LFE
Sampling rate : 48.0 kHz
Frame rate : 31.250 FPS (1536 SPF)
Bit depth : 16 bits
Compression mode : Lossy
Stream size : 354 MiB (7%)
Language : Russian
Service kind : Complete Main
Default : Yes
Forced : No

Audio #2
ID : 3
Format : AC-3
Format/Info : Audio Coding 3
Format settings, Endianness : Big
Codec ID : A_AC3
Duration : 2 h 8 min
Bit rate mode : Constant
Bit rate : 384 kb/s
Channel(s) : 6 channels
Channel positions : Front: L C R, Side: L R, LFE
Sampling rate : 48.0 kHz
Frame rate : 31.250 FPS (1536 SPF)
Bit depth : 16 bits
Compression mode : Lossy
Stream size : 354 MiB (7%)
Language : English
Service kind : Complete Main
Default : No
Forced : No

Text #1
ID : 4
Format : UTF-8
Codec ID : S_TEXT/UTF8
Codec ID/Info : UTF-8 Plain Text
Duration : 2 h 0 min
Bit rate : 88 b/s
Count of elements : 1347
Stream size : 77.8 KiB (0%)
Language : Russian
Default : Yes
Forced : No

Text #2
ID : 5
Format : UTF-8
Codec ID : S_TEXT/UTF8
Codec ID/Info : UTF-8 Plain Text
Duration : 2 h 0 min
Bit rate : 54 b/s
Count of elements : 1368
Stream size : 47.7 KiB (0%)
Language : English
Default : No
Forced : No

Menu
00:00:00.000 : en:Chapter 01
00:03:15.068 : en:Chapter 02
00:08:59.288 : en:Chapter 03
00:14:02.049 : en:Chapter 04
00:15:27.259 : en:Chapter 05
00:18:34.445 : en:Chapter 06
00:20:25.641 : en:Chapter 07
00:23:04.257 : en:Chapter 08
00:27:40.324 : en:Chapter 09
00:29:41.863 : en:Chapter 10
00:32:28.571 : en:Chapter 11
00:35:06.187 : en:Chapter 12
00:41:22.146 : en:Chapter 13
00:47:21.295 : en:Chapter 14
00:52:10.168 : en:Chapter 15
00:57:34.075 : en:Chapter 16
01:00:36.341 : en:Chapter 17
01:05:59.997 : en:Chapter 18
01:16:04.560 : en:Chapter 19
01:18:18.652 : en:Chapter 20
01:29:05.673 : en:Chapter 21
01:32:53.859 : en:Chapter 22
01:35:16.001 : en:Chapter 23
01:42:00.113 : en:Chapter 24
01:48:59.491 : en:Chapter 25
01:51:01.071 : en:Chapter 26
01:57:51.939 : en:Chapter 27
02:01:33.703 : en:Chapter 28
02:08:45.592 : en:Chapter 29


Релиз от: Cthulhu


_________________
Проголосуй за трекер Открытый торрент трекер - RUS-MEDIA.ORG

Проголосуй Открытый торрент трекер - RUS-MEDIA.ORG


Вернуться к началу
 Профиль Отправить личное сообщение  
 
   Похожие торренты   Автор   Торрент   Размер 
В этой теме нет новых непрочитанных сообщений. Эффект бабочки / The Butterfly Effect [фантастика, триллер, драма, 2004] BDRip-HEVC 1080p, Dub [Режиссёрская версия]

salma3

21 | 0

4.59 ГБ

В этой теме нет новых непрочитанных сообщений. Эффект бабочки / The Butterfly Effect [фантастика, триллер, драма, 2004] BDRip-HEVC 1080p, Dub [Режиссёрская версия]

salma3

55 | 6

5.38 ГБ

В этой теме нет новых непрочитанных сообщений. Ван Хельсинг / Van Helsing [фэнтези, боевик, триллер, 2004] BDRip-HEVC 1080p, Dub

salma3

0 | 0

9.51 ГБ

В этой теме нет новых непрочитанных сообщений. Бердмэн / Birdman [драма, комедия, 2014] BDRip-HEVC 1080p, Dub

salma3

0 | 0

7.04 ГБ

В этой теме нет новых непрочитанных сообщений. Остаться в живых / Lost [S01] [Фантастика, фэнтези, триллер, 2004] BDRip-HEVC 1080p, Dub [Первый канал]

salma3

2 | 1

40.8 ГБ

В этой теме нет новых непрочитанных сообщений. Реальная любовь / Love Actually [мелодрама, комедия, драма, 2003] BDRip HEVC 1080p, Dub

salma3

28 | 25

10.24 ГБ

В этой теме нет новых непрочитанных сообщений. Рок-звезда / Rock Star [драма, комедия, музыка, 2001] BDRip-HEVC 1080p, Dub

salma3

14 | 0

4.67 ГБ


Начать новую тему Ответить на тему  [ 1 сообщение ] 




Для Мосгорсуда, Роскомнадзора и рекламодателей:: mosgorsud-torrent[собачка]yandex.ru
cron