Торрент файл
скачать торрент магнет ссылка Добавлен: 22 окт 2017, 11:28
Размер: 6.09 ГБ
Сидеров: 16
Личеров: 5
Статус: (salma3)
Автор

СообщениеДобавлено: 22 окт 2017, 11:28 

Не в сети
Супермодератор
Аватара пользователя
Дата регистрации:
15 фев 2012, 16:44
Возраст: 28
Спасибо: 6642 / 2146
Сообщения: 45738
Год выпуска: 1990
Жанр: комедия, криминал
Выпущено: США, Devoted Productions, Warner Bros
Продолжительность: 01:28:30
Перевод: Дублированный, профессиональный многоголосый, авторский
Режиссер: Ховард Франклин, Билл Мюррей

В ролях: Билл Мюррей, Дэйл Гранд, Боб Эллиотт, Джина Дэвис, Рэнди Куэйд, Кимбирли Аарн, Рон Райан, Брайан МакКоннаки, Джек Гилпин, Джордан Каэль


О фильме:
Когда в банк врывается клоун и требует отдать ему все деньги, никто поначалу не воспринимает его всерьез. Но оказывается, что шутить никто не намерен: это трое друзей осуществляют собственный гениальный план ограбления. Однако заполучить деньги - самое простое, куда сложнее, оказывается, выбраться с добычей из города. Грабителей-дилетантов преследует и полиция, и мафия.




Файл
Качество: WEBRip 720p
Видео: MPEG-4 AVC, 8500 Кбит/сек, 1276x720, 23,976 кадра/сек
Аудио 1: Русский: AC3, 2 ch, 192 Кбит/сек |Дублированный, Варус Видео|
Аудио 2: Русский: AC3, 2 ch, 192 Кбит/сек |Профессиональный многоголосый, 1 канал|
Аудио 3: Русский: AC3, 2 ch, 192 Кбит/сек |Профессиональный многоголосый, СТС|
Аудио 4: Русский: AC3, 6 ch, 384 Кбит/сек |Авторский одноголосый, А. Гаврилов|
Аудио 5: Английский: AC3, 6 ch, 384 Кбит/сек |Оригинал|
Субтитры: Русские, английские
Навигация по главам: есть

Релиз от: mzma




x264 [info]: frame I:878 Avg QP:16.16 size: 189130
x264 [info]: frame P:26928 Avg QP:19.13 size: 82845
x264 [info]: frame B:99506 Avg QP:21.36 size: 32863
---------------------------------------------------------------------
Общее
Уникальный идентификатор : 195092213505747783040031487589567531840 (0x92C564C25D0A8289AD84B04B85018B40)
Полное имя : Быстрые.перемены.1990.WEB-DLRip.720p.KORSAR.mkv
Формат : Matroska
Версия формата : Version 2
Размер файла : 6,09 Гбайт
Продолжительность : 1 ч. 28 м.
Общий поток : 9847 Кбит/сек
Дата кодирования : UTC 2017-08-30 19:43:49
Программа кодирования : mkvmerge v5.8.0 ('No Sleep / Pillow') built on Sep 2 2012 15:37:04
Библиотека кодирования : libebml v1.2.3 + libmatroska v1.3.0

Видео
Идентификатор : 1
Формат : AVC
Формат/Информация : Advanced Video Codec
Профиль формата : High@L4.1
Параметр CABAC формата : Да
Параметр ReFrames формата : 9 кадров
Идентификатор кодека : V_MPEG4/ISO/AVC
Продолжительность : 1 ч. 28 м.
Битрейт : 8500 Кбит/сек
Ширина : 1276 пикселей
Высота : 720 пикселей
Соотношение сторон : 16:9
Режим частоты кадров : Постоянный
Частота кадров : 23,976 (24000/1001) кадра/сек
Цветовое пространство : YUV
Субдискретизация насыщенности : 4:2:0
Битовая глубина : 8 бит
Тип развёртки : Прогрессивная
Бит/(Пиксели*Кадры) : 0.386
Размер потока : 5,14 Гбайт (84%)
Заголовок : RIP | MZMA
Библиотека кодирования : x264 core 148 r2638 7599210
Настройки программы : cabac=1 / ref=9 / deblock=1:-1:-1 / analyse=0x3:0x113 / me=umh / subme=11 / psy=1 / psy_rd=1.00:0.00 / mixed_ref=1 / me_range=48 / chroma_me=1 / trellis=2 / 8x8dct=1 / cqm=0 / deadzone=21,11 / fast_pskip=0 / chroma_qp_offset=-2 / threads=6 / lookahead_threads=1 / sliced_threads=0 / nr=0 / decimate=0 / interlaced=0 / bluray_compat=0 / constrained_intra=0 / bframes=16 / b_pyramid=2 / b_adapt=2 / b_bias=0 / direct=3 / weightb=1 / open_gop=0 / weightp=2 / keyint=250 / keyint_min=23 / scenecut=40 / intra_refresh=0 / rc_lookahead=60 / rc=2pass / mbtree=1 / bitrate=8500 / ratetol=1.0 / qcomp=0.60 / qpmin=0 / qpmax=69 / qpstep=4 / cplxblur=20.0 / qblur=0.5 / vbv_maxrate=50000 / vbv_bufsize=62500 / nal_hrd=none / filler=0 / ip_ratio=1.40 / aq=1:1.00
Язык : English
Default : Да
Forced : Нет
Цветовой диапазон : Limited
Основные цвета : BT.709
Характеристики трансфера : BT.709
Коэффициенты матрицы : BT.709

Аудио #1
Идентификатор : 2
Формат : AC-3
Формат/Информация : Audio Coding 3
Параметр Endianness формата : Big
Идентификатор кодека : A_AC3
Продолжительность : 1 ч. 28 м.
Вид битрейта : Постоянный
Битрейт : 192 Кбит/сек
Каналы : 2 канала
Расположение каналов : Front: L R
Частота : 48,0 КГц
Частота кадров : 31,250 кадров/сек (1536 spf)
Битовая глубина : 16 бит
Метод сжатия : С потерями
Размер потока : 122 Мбайт (2%)
Заголовок : DUB | Варус Видео
Язык : Russian
Default : Да
Forced : Нет

Аудио #2
Идентификатор : 3
Формат : AC-3
Формат/Информация : Audio Coding 3
Параметр Endianness формата : Big
Идентификатор кодека : A_AC3
Продолжительность : 1 ч. 28 м.
Вид битрейта : Постоянный
Битрейт : 192 Кбит/сек
Каналы : 2 канала
Расположение каналов : Front: L R
Частота : 48,0 КГц
Частота кадров : 31,250 кадров/сек (1536 spf)
Битовая глубина : 16 бит
Метод сжатия : С потерями
Размер потока : 122 Мбайт (2%)
Заголовок : MVO
Язык : Russian
Default : Нет
Forced : Нет

Аудио #3
Идентификатор : 4
Формат : AC-3
Формат/Информация : Audio Coding 3
Параметр Endianness формата : Big
Идентификатор кодека : A_AC3
Продолжительность : 1 ч. 28 м.
Вид битрейта : Постоянный
Битрейт : 192 Кбит/сек
Каналы : 2 канала
Расположение каналов : Front: L R
Частота : 48,0 КГц
Частота кадров : 31,250 кадров/сек (1536 spf)
Битовая глубина : 16 бит
Метод сжатия : С потерями
Размер потока : 122 Мбайт (2%)
Заголовок : MVO | СТС
Язык : Russian
Default : Нет
Forced : Нет

Аудио #4
Идентификатор : 5
Формат : AC-3
Формат/Информация : Audio Coding 3
Параметр Endianness формата : Big
Идентификатор кодека : A_AC3
Продолжительность : 1 ч. 28 м.
Вид битрейта : Постоянный
Битрейт : 384 Кбит/сек
Каналы : 6 каналов
Расположение каналов : Front: L C R, Side: L R, LFE
Частота : 48,0 КГц
Частота кадров : 31,250 кадров/сек (1536 spf)
Битовая глубина : 16 бит
Метод сжатия : С потерями
Размер потока : 243 Мбайт (4%)
Заголовок : AVO | А. Гаврилов
Язык : Russian
Default : Нет
Forced : Нет

Аудио #5
Идентификатор : 6
Формат : AC-3
Формат/Информация : Audio Coding 3
Параметр Endianness формата : Big
Идентификатор кодека : A_AC3
Продолжительность : 1 ч. 28 м.
Вид битрейта : Постоянный
Битрейт : 384 Кбит/сек
Каналы : 6 каналов
Расположение каналов : Front: L C R, Side: L R, LFE
Частота : 48,0 КГц
Частота кадров : 31,250 кадров/сек (1536 spf)
Битовая глубина : 16 бит
Метод сжатия : С потерями
Размер потока : 243 Мбайт (4%)
Заголовок : Original
Язык : English
Default : Нет
Forced : Нет

Текст #1
Идентификатор : 7
Формат : UTF-8
Идентификатор кодека : S_TEXT/UTF8
Идентификатор кодека/Информация : UTF-8 Plain Text
Язык : Russian
Default : Нет
Forced : Нет

Текст #2
Идентификатор : 8
Формат : UTF-8
Идентификатор кодека : S_TEXT/UTF8
Идентификатор кодека/Информация : UTF-8 Plain Text
Язык : English
Default : Нет
Forced : Нет

Меню
00:00:00.000 : :Chapter 01
00:02:30.434 : :Chapter 02
00:07:06.567 : :Chapter 03
00:12:35.834 : :Chapter 04
00:15:05.068 : :Chapter 05
00:19:59.535 : :Chapter 06
00:22:51.668 : :Chapter 07
00:26:38.602 : :Chapter 08
00:30:33.536 : :Chapter 09
00:32:08.736 : :Chapter 10
00:36:22.070 : :Chapter 11
00:38:07.337 : :Chapter 12
00:42:04.504 : :Chapter 13
00:45:30.472 : :Chapter 14
00:49:36.073 : :Chapter 15
00:52:46.707 : :Chapter 16
00:56:59.541 : :Chapter 17
01:02:18.275 : :Chapter 18
01:05:23.109 : :Chapter 19
01:10:01.376 : :Chapter 20
01:12:47.743 : :Chapter 21
01:15:36.210 : :Chapter 22
01:19:26.544 : :Chapter 23
01:22:36.844 : :Chapter 24
01:24:50.745 : :Chapter 25
01:28:23.713 : :Chapter 26


_________________
Проголосуй за трекер Открытый торрент трекер - RUS-MEDIA.ORG

Проголосуй Открытый торрент трекер - RUS-MEDIA.ORG



реклама партнёра


Вернуться к началу
 Профиль Отправить личное сообщение  
 
   Похожие торренты   Автор   Торрент   Размер 
В этой теме нет новых непрочитанных сообщений. Быстрые перемены / Quick Change [комедия, криминал, 1990] WEBRip 1080p, Dub

salma3

13 | 4

7.27 ГБ

В этой теме нет новых непрочитанных сообщений. Перемены / Better Things [02x01 из 10] [Комедия, 2017] WEBRip 720p, Mvo [IdeaFilm]

salma3

11 | 1

962.96 МБ

В этой теме нет новых непрочитанных сообщений. Перемены / Better Things [S02] [Комедия, 2017] WEBRip, Mvo [IdeaFilm]

salma3

0 | 0

9.03 ГБ

В этой теме нет новых непрочитанных сообщений. Все к лучшему / Перемены / Better Things [S02] [Комедия, 2017] WEBRip, Mvo [IdeaFilm]

salma3

8 | 3

3.48 ГБ

В этой теме нет новых непрочитанных сообщений. Скорострел / Quick Draw [Seasons 1 episodes 1-8 of 8] (Нэнси Хауэр) [Комедия, приключения, вестерн, 2013] WebRip, dvo

Dracon

6 | 3

2.1 ГБ

В этой теме нет новых непрочитанных сообщений. Скорострел / Quick Draw [Seasons 1 episodes 1-6 of 8] (Нэнси Хауэр) [Комедия, приключения, вестерн, 2013] WebRip, dvo

Dracon

5 | 3

1.58 ГБ

В этой теме нет новых непрочитанных сообщений. Удар по системе / A Shock to the System [триллер, криминал, 1990] WEBRip, Mvo

salma3

0 | 0

1.45 ГБ


Начать новую тему Ответить на тему  [ 1 сообщение ] 




Для Мосгорсуда, Роскомнадзора и рекламодателей:: mosgorsud-torrent[собачка]yandex.ru