Торрент файл
скачать торрент магнет ссылка Добавлен: 21 окт 2017, 11:15
Размер: 6.09 ГБ
Сидеров: 34
Личеров: 19
Статус: (salma3)
Автор

СообщениеДобавлено: 21 окт 2017, 11:15 

Не в сети
Супермодератор
Аватара пользователя
Дата регистрации:
15 фев 2012, 16:44
Возраст: 28
Спасибо: 6928 / 2147
Сообщения: 52985
Год выхода: 1991
Жанр: Детектив, Триллер
Режиссер: Джонатан Демми

В ролях: Джоди Фостер, Энтони Хопкинс, Скотт Гленн, Роджер Кормэн, Чарлз Напьер, Дайан Бейкер

О фильме:
Жестокий маньяк совершает зверские убийства молоденьких женщин. Пытаясь его вычислить, ФБР направляет талантливую студентку полицейской академии Клариссу Старлинг на своеобразный разговор по душам с запрятанным в тайную тюремную спецпсихушку метром психопатологии, а по совместительству убийцей и людоедом доктором Ганнибалом Лектером. В результате этого разговора полиция выходит на след маньяка, а гений злодейства Лектер, усыпив бдительность охраны, берется за старое...



Страна: США
Продолжительность: 1:58:31
Перевод: Дубляж [лицензия]

Файл
Кодек: HEVC x265 8bit
Качество: BDRip-HEVC 1080p
Видео: 1920x1038, 23.976 кадр/сек, 6458 Кбит/сек, 8bit
Аудио1: Русская, AC3 448 Кбит/сек, 6 канала(ов),16bit 48,0 КГц
Аудио2: English, AC3 448 Кбит/сек, 6 канала(ов),16bit 48,0 КГц
Субтитры: Русские, English

General
Unique ID : 206150950165975985532429418356528762277 (0x9B173A928FC8B2ABBA0043B5015DCDA5)
Format : Matroska
Format version : Version 4 / Version 2
File size : 6.09 GiB
Duration : 1 h 58 min
Overall bit rate : 7 357 kb/s
Encoded date : UTC 2017-10-11 17:05:06
Writing application : mkvmerge v13.0.0 ('The Juggler') 64bit
Writing library : libebml v1.3.4 + libmatroska v1.4.5
Cover : Yes
Attachments : cover1.jpg

Video
ID : 1
Format : HEVC
Format/Info : High Efficiency Video Coding
Format profile : Main@L4.1@High
Codec ID : V_MPEGH/ISO/HEVC
Duration : 1 h 58 min
Bit rate : 6 458 kb/s
Width : 1 920 pixels
Height : 1 038 pixels
Display aspect ratio : 1.85:1
Frame rate mode : Constant
Frame rate : 23.976 (24000/1001) FPS
Color space : YUV
Chroma subsampling : 4:2:0
Bit depth : 8 bits
Bits/(Pixel*Frame) : 0.135
Stream size : 5.35 GiB (88%)
Writing library : x265 2.5+17-f8ae7afc1f61:[Windows][GCC 7.1.0][64 bit] 8bit
Encoding settings : cpuid=1050111 / frame-threads=5 / numa-pools=4 / wpp / no-pmode / no-pme / no-psnr / no-ssim / log-level=3 / input-csp=1 / input-res=1920x1038 / interlace=0 / total-frames=0 / level-idc=41 / high-tier=1 / uhd-bd=0 / ref=4 / no-allow-non-conformance / no-repeat-headers / annexb / no-aud / no-hrd / info / hash=0 / no-temporal-layers / open-gop / min-keyint=23 / keyint=250 / bframes=10 / b-adapt=2 / b-pyramid / bframe-bias=0 / rc-lookahead=40 / lookahead-slices=6 / scenecut=40 / no-intra-refresh / ctu=64 / min-cu-size=8 / no-rect / no-amp / max-tu-size=32 / tu-inter-depth=2 / tu-intra-depth=2 / limit-tu=0 / rdoq-level=0 / dynamic-rd=0.00 / no-ssim-rd / signhide / no-tskip / nr-intra=0 / nr-inter=0 / no-constrained-intra / strong-intra-smoothing / max-merge=3 / limit-refs=3 / no-limit-modes / me=2 / subme=6 / merange=32 / temporal-mvp / weightp / weightb / no-analyze-src-pics / deblock=-3:-3 / no-sao / no-sao-non-deblock / rd=3 / no-early-skip / rskip / no-fast-intra / no-tskip-fast / no-cu-lossless / no-b-intra / no-splitrd-skip / rdpenalty=0 / psy-rd=2.00 / psy-rdoq=0.00 / no-rd-refine / analysis-reuse-mode=0 / no-lossless / cbqpoffs=0 / crqpoffs=0 / rc=crf / crf=19.5 / qcomp=0.60 / qpstep=4 / stats-write=0 / stats-read=0 / vbv-maxrate=50000 / vbv-bufsize=35714 / vbv-init=0.9 / crf-max=30.0 / crf-min=0.0 / ipratio=1.40 / pbratio=1.30 / aq-mode=2 / aq-strength=0.90 / cutree / zone-count=0 / no-strict-cbr / qg-size=32 / no-rc-grain / qpmax=69 / qpmin=0 / no-const-vbv / sar=1 / overscan=0 / videoformat=5 / range=0 / colorprim=2 / transfer=2 / colormatrix=2 / chromaloc=0 / display-window=0 / max-cll=0,0 / min-luma=0 / max-luma=255 / log2-max-poc-lsb=8 / vui-timing-info / vui-hrd-info / slices=1 / opt-qp-pps / opt-ref-list-length-pps / no-multi-pass-opt-rps / scenecut-bias=0.05 / no-opt-cu-delta-qp / no-aq-motion / no-hdr / no-hdr-opt / no-dhdr10-opt / analysis-reuse-level=5 / scale-factor=0 / refine-intra=0 / refine-inter=0 / refine-mv=0 / no-limit-sao / ctu-info=0
Language : English
Default : Yes
Forced : No

Audio #1
ID : 2
Format : AC-3
Format/Info : Audio Coding 3
Format settings, Endianness : Big
Codec ID : A_AC3
Duration : 1 h 58 min
Bit rate mode : Constant
Bit rate : 448 kb/s
Channel(s) : 6 channels
Channel positions : Front: L C R, Side: L R, LFE
Sampling rate : 48.0 kHz
Frame rate : 31.250 FPS (1536 SPF)
Bit depth : 16 bits
Compression mode : Lossy
Stream size : 380 MiB (6%)
Language : Russian
Service kind : Complete Main
Default : Yes
Forced : No

Audio #2
ID : 3
Format : AC-3
Format/Info : Audio Coding 3
Format settings, Endianness : Big
Codec ID : A_AC3
Duration : 1 h 58 min
Bit rate mode : Constant
Bit rate : 448 kb/s
Channel(s) : 6 channels
Channel positions : Front: L C R, Side: L R, LFE
Sampling rate : 48.0 kHz
Frame rate : 31.250 FPS (1536 SPF)
Bit depth : 16 bits
Compression mode : Lossy
Stream size : 380 MiB (6%)
Language : English
Service kind : Complete Main
Default : No
Forced : No

Text #1
ID : 4
Format : UTF-8
Codec ID : S_TEXT/UTF8
Codec ID/Info : UTF-8 Plain Text
Duration : 1 h 52 min
Bit rate : 81 b/s
Count of elements : 1114
Stream size : 67.3 KiB (0%)
Language : Russian
Default : Yes
Forced : No

Text #2
ID : 5
Format : UTF-8
Codec ID : S_TEXT/UTF8
Codec ID/Info : UTF-8 Plain Text
Duration : 1 h 50 min
Bit rate : 54 b/s
Count of elements : 1264
Stream size : 43.7 KiB (0%)
Language : English
Default : No
Forced : No

Menu
00:00:00.000 : :Chapter 01
00:05:16.190 : :Chapter 02
00:08:14.368 : :Chapter 03
00:11:48.207 : :Chapter 04
00:21:39.047 : :Chapter 05
00:26:58.783 : :Chapter 06
00:31:38.187 : :Chapter 07
00:34:59.764 : :Chapter 08
00:38:39.108 : :Chapter 09
00:41:14.263 : :Chapter 10
00:46:40.964 : :Chapter 11
00:49:43.981 : :Chapter 12
00:51:35.717 : :Chapter 13
00:57:45.253 : :Chapter 14
00:59:29.941 : :Chapter 15
01:01:09.874 : :Chapter 16
01:05:57.078 : :Chapter 17
01:14:14.074 : :Chapter 18
01:18:23.824 : :Chapter 19
01:21:11.616 : :Chapter 20
01:25:08.061 : :Chapter 21
01:27:16.022 : :Chapter 22
01:33:16.549 : :Chapter 23
01:36:40.878 : :Chapter 24
01:37:34.598 : :Chapter 25
01:39:57.116 : :Chapter 26
01:43:17.441 : :Chapter 27
01:51:02.280 : :Chapter 28


Релиз от: Cthulhu


_________________
Проголосуй за трекер Открытый торрент трекер - RUS-MEDIA.ORG

Проголосуй Открытый торрент трекер - RUS-MEDIA.ORG



реклама партнёра


Вернуться к началу
 Профиль Отправить личное сообщение  
 
   Похожие торренты   Автор   Торрент   Размер 
В этой теме нет новых непрочитанных сообщений. Молчание ягнят / The Silence of the Lambs [триллер, детектив, криминал, 1991] BDRip-AVC, Dub

salma3

0 | 0

2.91 ГБ

В этой теме нет новых непрочитанных сообщений. Молчание ягнят / The Silence of the Lambs [Триллер, детектив, криминал, 1991] BDRemux 1080p, Dub

salma3

0 | 0

41.63 ГБ

В этой теме нет новых непрочитанных сообщений. Молчание ягнят / The Silence Of The Lambs [Триллер, криминал, детектив, 1991] BDRemux 1080p, Dub [Remastered ]

salma3

0 | 0

54.21 ГБ

В этой теме нет новых непрочитанных сообщений. Молчание ягнят / The Silence of the Lambs [триллер, криминал, детектив, 1991] BDRip, Dub [Remastered ] [Criterion Collection]

salma3

0 | 0

1.45 ГБ

В этой теме нет новых непрочитанных сообщений. Молчание ягнят / The Silence Of The Lambs [Триллер, криминал, детектив, 1991] BDRip 720p, Dub [Remastered ] [Criterion Collection]

salma3

0 | 0

12.19 ГБ

В этой теме нет новых непрочитанных сообщений. Молчание / Silence [Драма, история, 2016] BDRip 1080p, Dub [iTunes]

salma3

1682 | 646

12.45 ГБ

В этой теме нет новых непрочитанных сообщений. Даже у ягнят есть зубы / Even Lambs Have Teeth 201 [триллер, 2015] HDRip, Avo

salma3

46 | 2

735.62 МБ


Начать новую тему Ответить на тему  [ 1 сообщение ] 




Для Мосгорсуда, Роскомнадзора и рекламодателей:: mosgorsud-torrent[собачка]yandex.ru
cron