Торрент файл
скачать торрент магнет ссылка Добавлен: 21 окт 2017, 02:02
Размер: 4.59 ГБ
Сидеров: 31
Личеров: 11
Статус: (salma3)
Автор

СообщениеДобавлено: 21 окт 2017, 02:02 

Не в сети
Супермодератор
Аватара пользователя
Дата регистрации:
15 фев 2012, 16:44
Возраст: 29
Спасибо: 7332 / 2147
Сообщения: 73912
Год выпуска: 2003
Жанр: драма, спорт
Выпущено: США, Revolution Studios, Tollin/Robbins Productions
Продолжительность: 01:49:17
Перевод: Профессиональный многоголосый
Режиссер: Майкл Толлин

В ролях: Кьюба Гудинг мл., Эд Харрис, Элфри Вудард, С. Ипейта Меркерсон, Брент Секстон, Крис Малки, Сара Дрю, Райли Смит, Патрик Брин, Дебра Уингер


О фильме:
Школьный тренер Гарольд Джонс (Харрис) спасает умственно отсталого темнокожего парня Джеймса Роберта Кеннеди (Гудинг-мл.) от своих учеников, которые издевались над ним. Он делает Джеймса, который получил прозвище «Радио», своим помощником на тренировках, и вскоре безграмотный афро-американец становится своеобразным талисманом его команды.



Файл
Качество: WEB-DLRip 720p
Видео: MPEG-4 AVC, 5176 Кбит/сек, 1280x692, 23,976 кадра/сек
Аудио 1: AC3, 6 ch, 448 Кбит/сек |Профессиональный многоголосый|
Аудио 2: AC3, 6 ch, 384 Кбит/сек |Оригинал|
Субтитры: Русские, английские, финские
Навигация по главам: есть

Релиз от: mzma





x264 [info]: frame I:1084 Avg QP:14.43 size: 149829
x264 [info]: frame P:37930 Avg QP:17.75 size: 53005
x264 [info]: frame B:118197 Avg QP:19.69 size: 17675
--------------------------------------------------------------------
Общее
Уникальный идентификатор : 234624453716059583014064931630737008424 (0xB08306AF2081A7FD8CA19C0AC19C2728)
Полное имя : Радио.2003.WEB-DLRip.720p.KORSAR.mkv
Формат : Matroska
Версия формата : Version 2
Размер файла : 4,59 Гбайт
Продолжительность : 1 ч. 49 м.
Общий поток : 6008 Кбит/сек
Дата кодирования : UTC 2017-09-13 12:37:03
Программа кодирования : mkvmerge v5.8.0 ('No Sleep / Pillow') built on Sep 2 2012 15:37:04
Библиотека кодирования : libebml v1.2.3 + libmatroska v1.3.0

Видео
Идентификатор : 1
Формат : AVC
Формат/Информация : Advanced Video Codec
Профиль формата : High@L4.1
Параметр CABAC формата : Да
Параметр ReFrames формата : 9 кадров
Идентификатор кодека : V_MPEG4/ISO/AVC
Продолжительность : 1 ч. 49 м.
Битрейт : 5176 Кбит/сек
Ширина : 1280 пикселей
Высота : 692 пикселя
Соотношение сторон : 1,85:1
Режим частоты кадров : Постоянный
Частота кадров : 23,976 (24000/1001) кадра/сек
Цветовое пространство : YUV
Субдискретизация насыщенности : 4:2:0
Битовая глубина : 8 бит
Тип развёртки : Прогрессивная
Бит/(Пиксели*Кадры) : 0.244
Размер потока : 3,86 Гбайт (84%)
Заголовок : RIP | MZMA
Библиотека кодирования : x264 core 148 r2744kMod b97ae06
Настройки программы : cabac=1 / ref=9 / deblock=1:-1:-1 / analyse=0x3:0x113 / me=umh / subme=11 / psy=1 / fade_compensate=0.00 / psy_rd=1.00:0.00 / mixed_ref=1 / me_range=48 / chroma_me=1 / trellis=2 / 8x8dct=1 / cqm=0 / deadzone=21,11 / fast_pskip=0 / chroma_qp_offset=-2 / threads=6 / lookahead_threads=1 / sliced_threads=0 / nr=0 / decimate=0 / interlaced=0 / bluray_compat=0 / constrained_intra=0 / bframes=16 / b_pyramid=2 / b_adapt=2 / b_bias=0 / direct=3 / weightb=1 / open_gop=0 / weightp=2 / keyint=250 / keyint_min=23 / scenecut=40 / intra_refresh=0 / rc_lookahead=60 / rc=2pass / mbtree=1 / bitrate=5176 / ratetol=1.0 / qcomp=0.60 / qpmin=0 / qpmax=69 / qpstep=4 / cplxblur=20.0 / qblur=0.5 / vbv_maxrate=50000 / vbv_bufsize=62500 / nal_hrd=none / filler=0 / ip_ratio=1.40 / aq=1:1.00
Язык : English
Default : Да
Forced : Нет
Цветовой диапазон : Limited
Основные цвета : BT.709
Характеристики трансфера : BT.709
Коэффициенты матрицы : BT.709

Аудио #1
Идентификатор : 2
Формат : AC-3
Формат/Информация : Audio Coding 3
Параметр Endianness формата : Big
Идентификатор кодека : A_AC3
Продолжительность : 1 ч. 49 м.
Вид битрейта : Постоянный
Битрейт : 448 Кбит/сек
Каналы : 6 каналов
Расположение каналов : Front: L C R, Side: L R, LFE
Частота : 48,0 КГц
Частота кадров : 31,250 кадров/сек (1536 spf)
Битовая глубина : 16 бит
Метод сжатия : С потерями
Размер потока : 350 Мбайт (7%)
Заголовок : MVO
Язык : Russian
Default : Да
Forced : Нет

Аудио #2
Идентификатор : 3
Формат : AC-3
Формат/Информация : Audio Coding 3
Параметр Endianness формата : Big
Идентификатор кодека : A_AC3
Продолжительность : 1 ч. 49 м.
Вид битрейта : Постоянный
Битрейт : 384 Кбит/сек
Каналы : 6 каналов
Расположение каналов : Front: L C R, Side: L R, LFE
Частота : 48,0 КГц
Частота кадров : 31,250 кадров/сек (1536 spf)
Битовая глубина : 16 бит
Метод сжатия : С потерями
Размер потока : 300 Мбайт (6%)
Заголовок : Original
Язык : English
Default : Нет
Forced : Нет

Текст #1
Идентификатор : 4
Формат : UTF-8
Идентификатор кодека : S_TEXT/UTF8
Идентификатор кодека/Информация : UTF-8 Plain Text
Язык : Russian
Default : Нет
Forced : Нет

Текст #2
Идентификатор : 5
Формат : UTF-8
Идентификатор кодека : S_TEXT/UTF8
Идентификатор кодека/Информация : UTF-8 Plain Text
Язык : English
Default : Нет
Forced : Нет

Текст #3
Идентификатор : 6
Формат : UTF-8
Идентификатор кодека : S_TEXT/UTF8
Идентификатор кодека/Информация : UTF-8 Plain Text
Язык : Finnish
Default : Нет
Forced : Нет

Меню
00:00:00.000 : en:Chapter 1
00:03:34.167 : en:Chapter 2
00:05:53.701 : en:Chapter 3
00:07:53.201 : en:Chapter 4
00:11:11.501 : en:Chapter 5
00:13:42.501 : en:Chapter 6
00:16:58.668 : en:Chapter 7
00:19:50.168 : en:Chapter 8
00:24:27.668 : en:Chapter 9
00:26:04.202 : en:Chapter 10
00:29:32.502 : en:Chapter 11
00:31:10.535 : en:Chapter 12
00:33:14.668 : en:Chapter 13
00:35:47.202 : en:Chapter 14
00:40:41.036 : en:Chapter 15
00:43:38.336 : en:Chapter 16
00:46:21.003 : en:Chapter 17
00:53:16.837 : en:Chapter 18
00:56:59.037 : en:Chapter 19
01:03:47.504 : en:Chapter 20
01:10:56.838 : en:Chapter 21
01:17:01.205 : en:Chapter 22
01:21:15.839 : en:Chapter 23
01:24:57.839 : en:Chapter 24
01:29:07.673 : en:Chapter 25
01:37:39.374 : en:Chapter 26
01:43:24.374 : en:Chapter 27
01:44:32.574 : en:Chapter 28


_________________
Проголосуй за трекер Открытый торрент трекер - RUS-MEDIA.ORG

Проголосуй Открытый торрент трекер - RUS-MEDIA.ORG


Вернуться к началу
 Профиль Отправить личное сообщение  
 
   Похожие торренты   Автор   Торрент   Размер 
В этой теме нет новых непрочитанных сообщений. Ток-радио / Talk Radio [драма, экранизация, 1988] WEB-DLRip 720p, Mvo

salma3

25 | 10

5.46 ГБ

В этой теме нет новых непрочитанных сообщений. Скейтбордисты / Grind [Комедия, приключения, спорт, 2003] WEB-DLRip, Dvo [SDI Media]

salma3

37 | 18

1.45 ГБ

В этой теме нет новых непрочитанных сообщений. Подача / Pitch [S01] [Драма, спорт, 2016] WEB-DLRip 720p, Mvo [NewStudio]

salma3

37 | 46

15.22 ГБ

В этой теме нет новых непрочитанных сообщений. Султан / Sultan [Боевик, драма, мелодрама, спорт, 2016] WEB-DLRip 720p, Dvo+Sub

salma3

801 | 52

1.65 ГБ

В этой теме нет новых непрочитанных сообщений. Майлс / Miles [драма, комедия, семейный, спорт, 2016] WEB-DLRip 720p, Mvo

salma3

50 | 9

2.63 ГБ

В этой теме нет новых непрочитанных сообщений. Украсть дом / Stealing Home [Драма, мелодрама, спорт, 1988] WEB-DLRip 720p, Mvo

salma3

0 | 0

2.99 ГБ

В этой теме нет новых непрочитанных сообщений. Легенда Багера Ванса / The Legend of Bagger Vance [Мелодрама, драма, спорт, 2000] WEB-DLRip 720p, Mvo+Sub

salma3

16 | 8

6.86 ГБ


Начать новую тему Ответить на тему  [ 1 сообщение ] 




Для Мосгорсуда, Роскомнадзора и рекламодателей:: mosgorsud-torrent[собачка]yandex.ru
cron