Торрент файл
скачать торрент магнет ссылка Добавлен: 20 окт 2017, 21:02
Размер: 6.42 ГБ
Сидеров: 32
Личеров: 9
Статус: (salma3)
Автор

СообщениеДобавлено: 20 окт 2017, 21:02 

Не в сети
Супермодератор
Аватара пользователя
Дата регистрации:
15 фев 2012, 16:44
Возраст: 28
Спасибо: 7290 / 2147
Сообщения: 70815
Год выхода: 1956
Жанр: драма, приключения
Режиссер: Эдвард Дмитрик

В ролях: Спенсер Трэйси, Роберт Вагнер, Клер Тревор, Уильям Демарест, Барбара Дарроу, Ричард Арлен, Э. Г. Маршалл, Анна Кашфи, Ричард Гаррик, Гарри Таунс

О фильме: Старый проводник Захари живет в горах вместе со своим младшим братом Крисом. Мать Криса умерла при родах, и Захари был вынужден в одиночку вырастить брата, который не испытывает ни малейшей благодарности к брату и думает только о том, как бы разбогатеть и уехать. В горах происходит авиакатастрофа, но добраться до места аварии спасателям не удаётся. Крис уговаривает опытного проводника Захари вдвоём добраться до места катастрофы, чтобы завладеть находящимися там ценностями…



Страна: США
Продолжительность: 01:45:12
Перевод 1: Профессиональный (многоголосый закадровый)
Перевод 2: Любительский (одноголосый закадровый) Andre1288
Субтитры: русские (lange97)

Файл
Качество: BDRip 720p
Видео: 1280×720 (16:9); 8000kbps; 23.976 fps; 0.362 bpp
Аудио 1: Russian; AC3; 48.0 KHz; 2ch; 192 kbps MVO
Аудио 2: Russian; AC3; 48.0 KHz; 2ch; 192 kbps VO
Аудио 3: English; FLAC; 48.0 KHz; 1ch; 345 kbps

Format : Matroska
Format version : Version 4 / Version 2
File size : 6.42 GiB
Duration : 1 h 45 min
Overall bit rate mode : Variable
Overall bit rate : 8 700 kb/s
Encoded date : UTC 2017-04-02 09:22:42
Writing application : mkvmerge v8.3.0 ('Over the Horizon') 64bit
Writing library : libebml v1.3.1 + libmatroska v1.4.2
Attachments : poster.jpg

Video
ID : 1
Format : AVC
Format/Info : Advanced Video Codec
Format profile : High@L4.1
Format settings, CABAC : Yes
Format settings, ReFrames : 9 frames
Codec ID : V_MPEG4/ISO/AVC
Duration : 1 h 45 min
Bit rate : 8 000 kb/s
Width : 1 280 pixels
Height : 720 pixels
Display aspect ratio : 16:9
Frame rate mode : Constant
Frame rate : 23.976 (24000/1001) FPS
Color space : YUV
Chroma subsampling : 4:2:0
Bit depth : 8 bits
Scan type : Progressive
Bits/(Pixel*Frame) : 0.362
Stream size : 5.88 GiB (92%)
Writing library : x264 core 148 r2638 7599210
Encoding settings : cabac=1 / ref=9 / deblock=1:-3:-3 / analyse=0x3:0x133 / me=umh / subme=10 / psy=1 / psy_rd=1.00:0.50 / mixed_ref=1 / me_range=32 / chroma_me=1 / trellis=2 / 8x8dct=1 / cqm=0 / deadzone=21,11 / fast_pskip=0 / chroma_qp_offset=-4 / threads=6 / lookahead_threads=1 / sliced_threads=0 / nr=0 / decimate=0 / interlaced=0 / bluray_compat=0 / constrained_intra=0 / bframes=10 / b_pyramid=2 / b_adapt=2 / b_bias=0 / direct=3 / weightb=1 / open_gop=0 / weightp=2 / keyint=240 / keyint_min=23 / scenecut=40 / intra_refresh=0 / rc_lookahead=60 / rc=2pass / mbtree=0 / bitrate=8000 / ratetol=1.0 / qcomp=0.65 / qpmin=0 / qpmax=69 / qpstep=4 / cplxblur=20.0 / qblur=0.5 / vbv_maxrate=62500 / vbv_bufsize=78125 / nal_hrd=none / filler=0 / ip_ratio=1.40 / pb_ratio=1.30 / aq=1:1.00
Default : Yes
Forced : No

Audio #1
ID : 2
Format : AC-3
Format/Info : Audio Coding 3
Mode extension : CM (complete main)
Format settings, Endianness : Big
Codec ID : A_AC3
Duration : 1 h 45 min
Bit rate mode : Constant
Bit rate : 192 kb/s
Channel(s) : 2 channels
Channel positions : Front: L R
Sampling rate : 48.0 kHz
Frame rate : 31.250 FPS (1536 spf)
Bit depth : 16 bits
Compression mode : Lossy
Stream size : 145 MiB (2%)
Title : MVO
Language : Russian
Default : Yes
Forced : No

Audio #2
ID : 3
Format : AC-3
Format/Info : Audio Coding 3
Mode extension : CM (complete main)
Format settings, Endianness : Big
Codec ID : A_AC3
Duration : 1 h 45 min
Bit rate mode : Constant
Bit rate : 192 kb/s
Channel(s) : 2 channels
Channel positions : Front: L R
Sampling rate : 48.0 kHz
Frame rate : 31.250 FPS (1536 spf)
Bit depth : 16 bits
Compression mode : Lossy
Stream size : 145 MiB (2%)
Title : VO Andre1288
Language : Russian
Default : No
Forced : No

Audio #3
ID : 4
Format : FLAC
Format/Info : Free Lossless Audio Codec
Codec ID : A_FLAC
Duration : 1 h 45 min
Bit rate mode : Variable
Bit rate : 345 kb/s
Channel(s) : 1 channel
Channel positions : Front: C
Sampling rate : 48.0 kHz
Frame rate : 11.719 FPS (4096 spf)
Bit depth : 16 bits
Stream size : 259 MiB (4%)
Writing library : libFLAC 1.2.1 (UTC 2007-09-17)
Language : English
Default : No
Forced : No

Text
ID : 5
Format : UTF-8
Codec ID : S_TEXT/UTF8
Codec ID/Info : UTF-8 Plain Text
Duration : 1 h 42 min
Bit rate : 76 b/s
Count of elements : 748
Stream size : 57.4 KiB (0%)
Title : translate lange97
Language : Russian
Default : No
Forced : No

Menu
00:00:00.000 : en:00:00:00.000
00:08:52.699 : en:00:08:52.699
00:23:47.760 : en:00:23:47.760
00:38:52.997 : en:00:38:52.997
00:43:33.152 : en:00:43:33.152
00:54:49.995 : en:00:54:49.995
01:15:10.256 : en:01:15:10.256
01:24:20.222 : en:01:24:20.222


_________________
Проголосуй за трекер Открытый торрент трекер - RUS-MEDIA.ORG

Проголосуй Открытый торрент трекер - RUS-MEDIA.ORG


Вернуться к началу
 Профиль Отправить личное сообщение  
 
   Похожие торренты   Автор   Торрент   Размер 
В этой теме нет новых непрочитанных сообщений. Сахарная гора / Sugar Mountain [Драма, триллер, 2016] WEB-DL 720p, Dvo

salma3

475 | 86

3.22 ГБ

В этой теме нет новых непрочитанных сообщений. Сахарная гора / Sugar Mountain [Драма, триллер, 2016] WEB-DLRip, Dvo

salma3

725 | 202

1.53 ГБ

В этой теме нет новых непрочитанных сообщений. Сахарная гора / Sugar Mountain (триллер, драма, 2016) WEB-DLRip | L

marya111

270 | 55

1.37 ГБ

В этой теме нет новых непрочитанных сообщений. На глубине 6 футов / 6 Below: Miracle on the Mountain [триллер, драма, приключения, 2017] BDRip 720p, Dub [Лицензия]

salma3

0 | 0

3.8 ГБ

В этой теме нет новых непрочитанных сообщений. На глубине 6 футов / 6 Below: Miracle on the Mountain [триллер, драма, приключения, биография, 2017] BDRip 720p, Dub [iTunes]

salma3

81 | 32

3.45 ГБ

В этой теме нет новых непрочитанных сообщений. Анальная Гора / Up Anal Mountain (2017) WEB-DL

salma3

89 | 27

2.78 ГБ

В этой теме нет новых непрочитанных сообщений. Ведьмина гора / Race to Witch Mountain [фантастика, триллер, комедия, 2009] WEB-DLRip-AVC, Dub [Open Matte]

salma3

0 | 0

2.42 ГБ


Начать новую тему Ответить на тему  [ 1 сообщение ] 




Для Мосгорсуда, Роскомнадзора и рекламодателей:: mosgorsud-torrent[собачка]yandex.ru
cron