Торрент файл
скачать торрент магнет ссылка Добавлен: 20 окт 2017, 16:29
Размер: 11.82 ГБ
Сидеров: 9
Личеров: 18
Статус: (salma3)
Автор

СообщениеДобавлено: 20 окт 2017, 16:29 

Не в сети
Супермодератор
Аватара пользователя
Дата регистрации:
15 фев 2012, 16:44
Возраст: 28
Спасибо: 7163 / 2147
Сообщения: 61886
Год выхода: 1979
Жанр: Фантастика, триллер, мелодрама
Режиссер: Николас Мейер

В ролях: Малкольм МакДауэлл, Дэвид Уорнер, Мэри Стинберген, Чарльз Чоффи, Кент Уильямс, Андония Катсарос, Патти Д`Арбанвилль, Джеймс Гаррет, Лео Льюис, Кит МакКоннелл, Байрон Уэбстер, Джеральдин Барон, Лори Майн, Джозеф Маэр, Майкл Эванс

О фильме:
В викторианской Англии Джек-Потрошитель убивает очередную проститутку. Полиция следует за ним и приходит в дом писателя Герберта Уэллса, который собрал друзей, чтобы представить им свое изобретение — машину времени. Он ещё не успел её испытать, как за него это сделал Джек-Потрошитель, который, скрываясь от полиции, отправился на ней в 1979 год. Уэллс, убеждённый, что в будущем наступит Утопия, не будет войн и преступности, решает отправиться вслед за ним, ибо этот кровавый маньяк может посеять хаос в Утопии...



Страна: США
Продолжительность: 01:52:00
Перевод: Профессиональный многоголосый, профессиональный двухголосый, авторский

Файл
Кодек: h.264
Качество: BDRip 1080p
Видео: MPEG-4 AVC, 12830 Кбит/с, 1920x800, 23,976 кадр/с
Звук:
Русский (AC3, 2 ch, 192 Кбит/с) / Профессиональный многоголосый (ТВ3)
Русский (AC3, 2 ch, 192 Кбит/с) / Профессиональный двухголосый (НТВ)
Русский (AC3, 2 ch, 192 Кбит/с) / Авторский (Л. Володарский)
Украинский (AC3, 2 ch, 192 Кбит/с) / Профессиональный многоголосый (INTER)
Английский (DTS, 2 ch, 1509 Кбит/с)
Субтитры: Русские, английские

Семпл

За BDRemux спасибо pirs18
Сохранены оригинальные главы как на Blu-ray
---[Information] [20.11.2016 12:56:55] x264 [info]: frame I:980 Avg QP:16.26 size:225028
---[Information] [20.11.2016 12:56:55] x264 [info]: frame P:29929 Avg QP:18.26 size:109195
---[Information] [20.11.2016 12:56:55] x264 [info]: frame B:130215 Avg QP:19.76 size: 55971
General
Unique ID : 218261139619555884595509210770727575006 (0xA4339102CC322264884694C611F11DDE)
Complete name : D:uTorrentPuteshestvie.v.mashine.vremeni.1979.BDRip.1080p.MediaClub.mkv
Format : Matroska
Format version : Version 4 / Version 2
File size : 11.8 GiB
Duration : 1 h 52 min
Overall bit rate : 15.1 Mb/s
Encoded date : UTC 2017-10-20 05:56:46
Writing application : mkvmerge v17.0.0 ('Be Ur Friend') 64-bit
Writing library : libebml v1.3.5 + libmatroska v1.4.8

Video
ID : 1
Format : AVC
Format/Info : Advanced Video Codec
Format profile : High@L4.1
Format settings, CABAC : Yes
Format settings, ReFrames : 5 frames
Codec ID : V_MPEG4/ISO/AVC
Duration : 1 h 52 min
Bit rate : 12.8 Mb/s
Width : 1 920 pixels
Height : 800 pixels
Display aspect ratio : 2.40:1
Frame rate mode : Constant
Frame rate : 23.976 (24000/1001) FPS
Color space : YUV
Chroma subsampling : 4:2:0
Bit depth : 8 bits
Scan type : Progressive
Bits/(Pixel*Frame) : 0.348
Stream size : 9.80 GiB (83%)
Title : BDRip by Silverok
Writing library : x264 core 148 r2638 7599210
Encoding settings : cabac=1 / ref=5 / deblock=1:-3:-3 / analyse=0x3:0x113 / me=umh / subme=10 / psy=1 / psy_rd=1.00:0.15 / mixed_ref=1 / me_range=32 / chroma_me=1 / trellis=2 / 8x8dct=1 / cqm=0 / deadzone=21,11 / fast_pskip=0 / chroma_qp_offset=-3 / threads=12 / lookahead_threads=3 / sliced_threads=0 / nr=0 / decimate=0 / interlaced=0 / bluray_compat=0 / constrained_intra=0 / bframes=16 / b_pyramid=2 / b_adapt=2 / b_bias=0 / direct=3 / weightb=1 / open_gop=0 / weightp=2 / keyint=240 / keyint_min=24 / scenecut=40 / intra_refresh=0 / rc_lookahead=40 / rc=2pass / mbtree=0 / bitrate=12830 / ratetol=1.0 / qcomp=0.60 / qpmin=0 / qpmax=69 / qpstep=4 / cplxblur=20.0 / qblur=0.5 / vbv_maxrate=62500 / vbv_bufsize=78125 / nal_hrd=none / filler=0 / ip_ratio=1.40 / pb_ratio=1.30 / aq=1:1.00
Default : Yes
Forced : No

Audio #1
ID : 2
Format : AC-3
Format/Info : Audio Coding 3
Format settings, Endianness : Big
Codec ID : A_AC3
Duration : 1 h 52 min
Bit rate mode : Constant
Bit rate : 192 kb/s
Channel(s) : 2 channels
Channel positions : Front: L R
Sampling rate : 48.0 kHz
Frame rate : 31.250 FPS (1536 spf)
Bit depth : 16 bits
Compression mode : Lossy
Stream size : 154 MiB (1%)
Title : многоголосый закадровый (ТВ3)
Language : Russian
Service kind : Complete Main
Default : Yes
Forced : No

Audio #2
ID : 3
Format : AC-3
Format/Info : Audio Coding 3
Format settings, Endianness : Big
Codec ID : A_AC3
Duration : 1 h 52 min
Bit rate mode : Constant
Bit rate : 192 kb/s
Channel(s) : 2 channels
Channel positions : Front: L R
Sampling rate : 48.0 kHz
Frame rate : 31.250 FPS (1536 spf)
Bit depth : 16 bits
Compression mode : Lossy
Stream size : 154 MiB (1%)
Title : двухголосый закадровый (НТВ)
Language : Russian
Service kind : Complete Main
Default : No
Forced : No

Audio #3
ID : 4
Format : AC-3
Format/Info : Audio Coding 3
Format settings, Endianness : Big
Codec ID : A_AC3
Duration : 1 h 52 min
Bit rate mode : Constant
Bit rate : 192 kb/s
Channel(s) : 2 channels
Channel positions : Front: L R
Sampling rate : 48.0 kHz
Frame rate : 31.250 FPS (1536 spf)
Bit depth : 16 bits
Compression mode : Lossy
Stream size : 154 MiB (1%)
Title : Авторский (Л. Володарский)
Service kind : Complete Main
Default : No
Forced : No

Audio #4
ID : 5
Format : AC-3
Format/Info : Audio Coding 3
Format settings, Endianness : Big
Codec ID : A_AC3
Duration : 1 h 52 min
Bit rate mode : Constant
Bit rate : 192 kb/s
Channel(s) : 2 channels
Channel positions : Front: L R
Sampling rate : 48.0 kHz
Frame rate : 31.250 FPS (1536 spf)
Bit depth : 16 bits
Compression mode : Lossy
Stream size : 154 MiB (1%)
Language : Ukrainian
Service kind : Complete Main
Default : No
Forced : No

Audio #5
ID : 6
Format : DTS
Format/Info : Digital Theater Systems
Mode : 16
Format settings, Endianness : Big
Codec ID : A_DTS
Duration : 1 h 52 min
Bit rate mode : Constant
Bit rate : 1 509 kb/s
Channel(s) : 2 channels
Channel positions : Front: L R
Sampling rate : 48.0 kHz
Frame rate : 93.750 FPS (512 spf)
Bit depth : 24 bits
Compression mode : Lossy
Stream size : 1.18 GiB (10%)
Language : English
Default : No
Forced : No

Text #1
ID : 7
Format : UTF-8
Codec ID : S_TEXT/UTF8
Codec ID/Info : UTF-8 Plain Text
Language : Russian
Default : No
Forced : No

Text #2
ID : 8
Format : UTF-8
Codec ID : S_TEXT/UTF8
Codec ID/Info : UTF-8 Plain Text
Language : English
Default : No
Forced : No

Menu
00:00:00.000 : en:
00:01:28.086 : en:
00:06:04.613 : en:
00:07:57.474 : en:
00:10:55.403 : en:
00:12:30.750 : en:
00:14:49.888 : en:
00:17:46.065 : en:
00:20:19.343 : en:
00:23:05.467 : en:
00:26:08.440 : en:
00:28:13.692 : en:
00:33:25.169 : en:
00:37:09.559 : en:
00:43:38.072 : en:
00:45:58.713 : en:
00:47:38.396 : en:
00:53:16.067 : en:
00:56:37.643 : en:
00:59:49.876 : en:
01:03:08.576 : en:
01:06:45.291 : en:
01:11:36.207 : en:
01:14:11.279 : en:
01:17:23.639 : en:
01:19:09.161 : en:
01:23:11.277 : en:
01:27:27.867 : en:
01:31:15.720 : en:
01:34:04.470 : en:
01:38:39.287 : en:
01:39:48.899 : en:
01:42:19.216 : en:
01:45:11.345 : en:
01:47:41.328 : en:
01:49:45.369 : en:
01:51:59.128 : en:


Релиз от: | Silverok


_________________
Проголосуй за трекер Открытый торрент трекер - RUS-MEDIA.ORG

Проголосуй Открытый торрент трекер - RUS-MEDIA.ORG


Вернуться к началу
 Профиль Отправить личное сообщение  
 
   Похожие торренты   Автор   Торрент   Размер 
В этой теме нет новых непрочитанных сообщений. Путешествие в машине времени / Time After Time [фантастика, триллер, мелодрама, 1979] BDRemux 1080p, Mvo

salma3

9 | 7

31.64 ГБ

В этой теме нет новых непрочитанных сообщений. Путешествие в машине времени / Time After Time [фантастика, триллер, мелодрама, 1979] BDRip 720p, Mvo

salma3

74 | 4

4.29 ГБ

В этой теме нет новых непрочитанных сообщений. Время / In Time [фантастика, триллер, драма, 2011] BDRip 1080p, Dub

salma3

172 | 51

4.37 ГБ

В этой теме нет новых непрочитанных сообщений. Ошибка времени / Time Lapse (Брэдли Кинг) [Фантастика, триллер, 2014] BDRip 1080p, dvo

Dracon

4 | 0

7.93 ГБ

В этой теме нет новых непрочитанных сообщений. Эпоха за эпохой / Time After Time [01x01 из 12] [Фантастика, драма, 2017] WEBRip, Mvo [IdeaFilm]

salma3

38 | 3

530 МБ

В этой теме нет новых непрочитанных сообщений. Эпоха за эпохой / Time After Time [01x01 из 12] [Фантастика, драма, 2017] WEBRip 720p, Mvo [IdeaFilm]

salma3

36 | 7

1.28 ГБ

В этой теме нет новых непрочитанных сообщений. Бойфренд из будущего / About Time [фантастика, драма, комедия, 2013] BDRip 1080p, Dub [лицензия]

salma3

4 | 1

7.76 ГБ


Начать новую тему Ответить на тему  [ 1 сообщение ] 




Для Мосгорсуда, Роскомнадзора и рекламодателей:: mosgorsud-torrent[собачка]yandex.ru
cron