Торрент файл
скачать торрент магнет ссылка Добавлен: 20 окт 2017, 16:25
Размер: 64.43 ГБ
Сидеров: 12
Личеров: 8
Статус: (salma3)
Автор

СообщениеДобавлено: 20 окт 2017, 16:25 

Не в сети
Супермодератор
Аватара пользователя
Дата регистрации:
15 фев 2012, 16:44
Возраст: 28
Спасибо: 6640 / 2146
Сообщения: 45613
Производство: США / Marvel Studios Inc.
Жанр: фантастика, боевик, приключения
Режиссер: Джон Фавро

Актеры: Роберт Дауни мл., Джефф Бриджес, Гвинет Пэлтроу, Терренс Ховард, Лесли Бибб, Шон Тоуб, Фаран Таир, Кларк Грегг, Джон Фавро, Саид Бадрия

Описание:
Миллиардер-изобретатель Тони Старк попадает в плен к Афганским террористам, которые пытаются заставить его создать оружие массового поражения. В тайне от своих захватчиков Старк конструирует высокотехнологичную киберброню, которая помогает ему сбежать. Однако по возвращении в США он узнаёт, что в совете директоров его фирмы плетётся заговор, чреватый страшными последствиями. Используя своё последнее изобретение, Старк пытается решить проблемы своей компании радикально…



Релиз от: BLUEBIRD
Продолжительность: 02:06:22
Качество: UHD BDRemux (HDR)
Перевод: Дублированный, Профессиональный (многоголосый, закадровый) (Kravec), Авторский (одноголосый, закадровый) (В. Королев, А. Гаврилов)
Субтитры: Русские (Full-length 2 шт., Forced), Украинские (Full-length), Английские

Видео: HEVC/H.265, 3840x2160p, (16:9), 56.0 Mb/s, 23.976 FPS
Аудио: DTS-HD MA, 6 ch, 3939 kbps - Русский, Дубляж
Аудио: AC3, 6 ch, 448 kbps - Украинский
Аудио: AC3, 6 ch, 640 kbps - Русский, Kravec
Аудио: DTS-HD MA, 6 ch, 3894 kbps - Русский, В. Королев
Аудио: DTS-HD MA, 6 ch, 3895 kbps - Русский, А. Гаврилов
Аудио: DTS-HD MA, 6 ch, 4046 kbps - Английский

General
Unique ID : 230049954963761629113216179692783435346 (0xAD12027B8010C61DA57C267EB7467E52)
Complete name : IRON_MAN1_BD_UHD_HDR_RMX-BLUEBIRD.mkv
Format : Matroska
Format version : Version 4 / Version 2
File size : 64.4 GiB
Duration : 2 h 6 min
Overall bit rate : 73.0 Mb/s
Movie name : IRON_MAN1_BD_UHD_HDR_RMX-BLUEBIRD
Encoded date : UTC 2017-10-13 19:47:55
Writing application : mkvmerge v16.0.0 ('Protest') 64-bit
Writing library : libebml v1.3.5 + libmatroska v1.4.8
Cover : Yes
Attachments : cover.png

Video
ID : 1
Format : HEVC
Format/Info : High Efficiency Video Coding
Format profile : Main 10@L5.1@High
Codec ID : V_MPEGH/ISO/HEVC
Duration : 2 h 6 min
Bit rate : 56.0 Mb/s
Width : 3 840 pixels
Height : 2 160 pixels
Display aspect ratio : 16:9
Frame rate mode : Constant
Frame rate : 23.976 (23976/1000) FPS
Standard : Component
Color space : YUV
Chroma subsampling : 4:2:0 (Type 2)
Bit depth : 10 bits
Bits/(Pixel*Frame) : 0.282
Stream size : 49.4 GiB (77%)
Title : IRON_MAN1_BD_UHD_HDR_RMX-BLUEBIRD
Default : Yes
Forced : No
Color range : Limited
Color primaries : BT.2020
Transfer characteristics : SMPTE ST 2084
Matrix coefficients : BT.2020 non-constant
Mastering display color primaries : R: x=0.680000 y=0.320000, G: x=0.265000 y=0.690000, B: x=0.150000 y=0.060000, White point: x=0.312700 y=0.329000
Mastering display luminance : min: 0.0050 cd/m2, max: 1000.0000 cd/m2

Audio #1
ID : 2
Format : DTS
Format/Info : Digital Theater Systems
Format profile : MA / Core
Mode : 16
Format settings, Endianness : Big
Codec ID : A_DTS
Duration : 2 h 6 min
Bit rate mode : Variable / Constant
Bit rate : 3 933 kb/s / 1 509 kb/s
Channel(s) : 6 channels
Channel positions : Front: L C R, Side: L R, LFE
Sampling rate : 48.0 kHz
Frame rate : 93.750 FPS (512 SPF)
Bit depth : 24 bits
Compression mode : Lossless / Lossy
Stream size : 3.47 GiB (5%)
Title : [DUB] DTS-HD MA 5.1 @ 3939 kbps
Language : Russian
Default : Yes
Forced : No

Audio #2
ID : 3
Format : AC-3
Format/Info : Audio Coding 3
Format settings, Endianness : Big
Codec ID : A_AC3
Duration : 2 h 6 min
Bit rate mode : Constant
Bit rate : 448 kb/s
Channel(s) : 6 channels
Channel positions : Front: L C R, Side: L R, LFE
Sampling rate : 48.0 kHz
Frame rate : 31.250 FPS (1536 SPF)
Bit depth : 16 bits
Compression mode : Lossy
Stream size : 405 MiB (1%)
Title : [DUB] DD 5.1 @ 448 kbps
Language : Ukrainian
Service kind : Complete Main
Default : No
Forced : No

Audio #3
ID : 4
Format : AC-3
Format/Info : Audio Coding 3
Format settings, Endianness : Big
Codec ID : A_AC3
Duration : 2 h 6 min
Bit rate mode : Constant
Bit rate : 640 kb/s
Channel(s) : 6 channels
Channel positions : Front: L C R, Side: L R, LFE
Sampling rate : 48.0 kHz
Frame rate : 31.250 FPS (1536 SPF)
Bit depth : 16 bits
Compression mode : Lossy
Stream size : 578 MiB (1%)
Title : [MVO] DD 5.1 @ 640 kbps (Kravec)
Language : Russian
Service kind : Complete Main
Default : No
Forced : No

Audio #4
ID : 5
Format : DTS
Format/Info : Digital Theater Systems
Format profile : MA / Core
Mode : 16
Format settings, Endianness : Big
Codec ID : A_DTS
Duration : 2 h 6 min
Bit rate mode : Variable / Constant
Bit rate : 3 840 kb/s / 1 509 kb/s
Channel(s) : 6 channels
Channel positions : Front: L C R, Side: L R, LFE
Sampling rate : 48.0 kHz
Frame rate : 93.750 FPS (512 SPF)
Bit depth : 24 bits
Compression mode : Lossless / Lossy
Stream size : 3.43 GiB (5%)
Title : [VO] DTS-HD MA 5.1 @ 3894 kbps (Korolev)
Language : Russian
Default : No
Forced : No

Audio #5
ID : 6
Format : DTS
Format/Info : Digital Theater Systems
Format profile : MA / Core
Mode : 16
Format settings, Endianness : Big
Codec ID : A_DTS
Duration : 2 h 6 min
Bit rate mode : Variable / Constant
Bit rate : 3 840 kb/s / 1 509 kb/s
Channel(s) : 6 channels
Channel positions : Front: L C R, Side: L R, LFE
Sampling rate : 48.0 kHz
Frame rate : 93.750 FPS (512 SPF)
Bit depth : 24 bits
Compression mode : Lossless / Lossy
Stream size : 3.43 GiB (5%)
Title : [VO] DTS-HD MA 5.1 @ 3895 kbps (Gavrilov)
Language : Russian
Default : No
Forced : No

Audio #6
ID : 7
Format : DTS
Format/Info : Digital Theater Systems
Format profile : MA / Core
Mode : 16
Format settings, Endianness : Big
Codec ID : A_DTS
Duration : 2 h 6 min
Bit rate mode : Variable / Constant
Bit rate : 4 046 kb/s / 1 509 kb/s
Channel(s) : 6 channels
Channel positions : Front: L C R, Side: L R, LFE
Sampling rate : 48.0 kHz
Frame rate : 93.750 FPS (512 SPF)
Bit depth : 24 bits
Compression mode : Lossless / Lossy
Stream size : 3.57 GiB (6%)
Title : [ORIGINAL] DTS-HD MA 5.1 @ 4046 kbps
Language : English
Default : No
Forced : No

Text #1
ID : 8
Format : PGS
Codec ID : S_HDMV/PGS
Codec ID/Info : Picture based subtitle format used on BDs/HD-DVDs
Duration : 2 h 5 min
Bit rate : 41.9 kb/s
Count of elements : 2734
Stream size : 37.5 MiB (0%)
Title : Full-length v.1
Language : Russian
Default : No
Forced : No

Text #2
ID : 9
Format : PGS
Codec ID : S_HDMV/PGS
Codec ID/Info : Picture based subtitle format used on BDs/HD-DVDs
Duration : 2 h 4 min
Bit rate : 32.9 kb/s
Count of elements : 2690
Stream size : 29.3 MiB (0%)
Title : Full-length v.2
Language : Russian
Default : No
Forced : No

Text #3
ID : 10
Format : PGS
Codec ID : S_HDMV/PGS
Codec ID/Info : Picture based subtitle format used on BDs/HD-DVDs
Duration : 2 h 4 min
Bit rate : 35.9 kb/s
Count of elements : 2690
Stream size : 32.0 MiB (0%)
Title : Full-length
Language : Ukrainian
Default : No
Forced : No

Text #4
ID : 11
Format : PGS
Codec ID : S_HDMV/PGS
Codec ID/Info : Picture based subtitle format used on BDs/HD-DVDs
Duration : 2 h 4 min
Bit rate : 36.1 kb/s
Count of elements : 2678
Stream size : 32.1 MiB (0%)
Title : Full-length v.1
Language : English
Default : No
Forced : No

Text #5
ID : 12
Format : PGS
Codec ID : S_HDMV/PGS
Codec ID/Info : Picture based subtitle format used on BDs/HD-DVDs
Duration : 1 h 3 min
Bit rate : 965 b/s
Count of elements : 74
Stream size : 449 KiB (0%)
Title : Forced
Language : Russian
Default : Yes
Forced : No

Text #6
ID : 13
Format : PGS
Codec ID : S_HDMV/PGS
Codec ID/Info : Picture based subtitle format used on BDs/HD-DVDs
Duration : 1 h 3 min
Bit rate : 683 b/s
Count of elements : 74
Stream size : 317 KiB (0%)
Title : Forced
Language : English
Default : No
Forced : No

Menu
00:00:00.000 : en:Chapter 1
00:04:40.655 : en:Chapter 2
00:10:52.944 : en:Chapter 3
00:17:07.609 : en:Chapter 4
00:26:23.248 : en:Chapter 5
00:33:08.944 : en:Chapter 6
00:42:20.537 : en:Chapter 7
00:49:00.729 : en:Chapter 8
00:52:58.758 : en:Chapter 9
01:05:15.328 : en:Chapter 10
01:15:24.144 : en:Chapter 11
01:25:00.762 : en:Chapter 12
01:30:49.777 : en:Chapter 13
01:36:06.093 : en:Chapter 14
01:42:39.736 : en:Chapter 15
01:53:51.741 : en:Chapter 16
01:57:38.050 : en:Chapter 17


_________________
Проголосуй за трекер Открытый торрент трекер - RUS-MEDIA.ORG

Проголосуй Открытый торрент трекер - RUS-MEDIA.ORG



реклама партнёра


Вернуться к началу
 Профиль Отправить личное сообщение  
 
   Похожие торренты   Автор   Торрент   Размер 
В этой теме нет новых непрочитанных сообщений. Железный человек 3 / Iron Man 3 [фантастика, боевик, приключения, 2013] UHD BDRemux 2160p, Dub [4K]

salma3

10 | 15

68.28 ГБ

В этой теме нет новых непрочитанных сообщений. Железный человек / Aieonmaen / Iron Man / Blade Man [01-18 из 18] (Ким Ён Су) [драма, фантастика, 2014] HDTVRip, avo

Dracon

69 | 16

11.31 ГБ

В этой теме нет новых непрочитанных сообщений. Железный кулак / Iron Fist [S01] [Фантастика, боевик, криминал, 2017] WEBRip, Mvo [NewStudio]

salma3

771 | 544

8 ГБ

В этой теме нет новых непрочитанных сообщений. Железный кулак / Iron Fist [S01] [Фантастика, боевик, криминал, 2017] WEBRip, Mvo [LostFilm]

salma3

92 | 59

8 ГБ

В этой теме нет новых непрочитанных сообщений. День независимости / Independence Day [фантастика, боевик, приключения, 1996] UHD BDRemux 2160p, Dub [4K] [Расширенная версия]

salma3

23 | 20

49.69 ГБ

В этой теме нет новых непрочитанных сообщений. Могучие рейнджеры / Power Rangers [фантастика, боевик, приключения, 2017] UHD BDRemux 2160p, Dub [4K] [iTunes]

salma3

26 | 38

41.38 ГБ

В этой теме нет новых непрочитанных сообщений. Железный кулак / Iron Fist [S01] [Фантастика, боевик, криминал, 2017] WEBRip 720p, Dvo [Sunshine Studio]

salma3

167 | 209

23.27 ГБ


Начать новую тему Ответить на тему  [ 1 сообщение ] 




Для Мосгорсуда, Роскомнадзора и рекламодателей:: mosgorsud-torrent[собачка]yandex.ru