Торрент файл
скачать торрент магнет ссылка Добавлен: 19 окт 2017, 21:04
Размер: 24.03 ГБ
Сидеров: 0
Личеров: 1
Статус: (salma3)
Автор

СообщениеДобавлено: 19 окт 2017, 21:04 

Не в сети
Супермодератор
Аватара пользователя
Дата регистрации:
15 фев 2012, 16:44
Возраст: 28
Спасибо: 7290 / 2147
Сообщения: 70562
Год выхода: 2000
Жанр: Боевик, триллер, комедия
Режиссер: МакДжи

В ролях: Кэмерон Диаз, Дрю Бэрримор, Люси Лью, Билл Мюррей, Сэм Рокуэлл, Келли Линч, Тим Карри, Криспин Гловер, Мэтт ЛеБлан, ЛЛ Кул Джей

О фильме:
Ангелы Чарли, суперсекретное элитное спецподразделение, которому доверяют только невыполнимые задания. С помощью новейших технологий, современного оружия, боевых искусств и убийственного женского очарования Ангелы Чарли творят чудеса. Но настоящим испытанием станет лишь это последнее задание…



Страна: США, Германия
Продолжительность: 01:38:24
Перевод: Дублированный, профессиональный многоголосый, авторский

Файл
Кодек: MPEG-4 AVC
Качество: BDRemux 1080p
Видео: 24953 Кбит/с, 1920x1080, 23.976 кадр/с
Аудио 1: Английский, DTS-HD Master Audio, 4131 kbps, 6 ch, 48000 Hz, 24-bit (DTS Core: 5.1 / 48 kHz / 1509 kbps / 24-bit) - Оригинал
Аудио 2: Русский, AC3, 6 ch, 48000 Hz, 448 kbps, - Дубляж
Аудио 3: Русский, AC3, 6 ch, 48000 Hz, 448 kbps, - Профессиональный многоголосый (R5)
Аудио 4: Русский,DTS-HD MA 5.1, 48 kHz, 4144 kbps avg (DTS Core: 5.1 / 48 kHz / 1509 kbps / 24-bit) - Авторский (Визгунов)
Аудио 5: Русский, АС3 5.1 / 48 kHz / 448 kbps - Авторский (Володарский)
Аудио 6: Украинский: АС3 2.1 / 48 kHz / 384 kbps - Профессиональный многоголосый
Субтитры: Русские, английские
Главы: есть

Премия канала «MTV», 2001 год
Победитель (2):
Лучший танец (Кэмерон Диаз)
Лучшая экранная команда (Дрю Бэрримор, Кэмерон Диаз, Люси Лью)
Номинации (4):
Лучшая эпизодическая роль (Том Грин)
Лучшая драка
Лучшая одежда (Люси Лью)
Лучшая реплика

Сатурн, 2001 год
Номинации (3):
Лучшая актриса второго плана (Люси Лью)
Лучшая актриса второго плана (Кэмерон Диаз)
Лучший приключенческий фильм, боевик или триллер

• Бэрримор, один из продюсеров, не очень любит огнестрельное оружие, поэтому Ангелы представлены в фильме экспертами боевых искусств. Кэмерон Диаз, Дрю Бэрримор и Люси Лью прошли напряжённый курс подготовки к своей роли под руководством известного хореографа из Гонконга Юань Хэпин.
• Множество кандидатов было рассмотрено на роль Алекс, в том числе Бейонсе, Лорин Хилл и Виктория Бекхэм. Роль получила Тэнди Ньютон, однако впоследствии отказалась от неё. В итоге Алекс сыграла Люси Лью.
• Как заявила исландская певица Бьорк, её приглашали на роль злодея, но она предложение отклонила.


Общее
Уникальный идентификатор : 213375103944284947678253851558190012438 (0xA0868CDA62C79314922F34D568505816)
Полное имя : D:РЕМУКС!!!!!Ангелы Чарли.BDRemux..mkv
Формат : Matroska
Версия формата : Version 4 / Version 2
Размер файла : 24,0 Гбайт
Продолжительность : 1 ч. 38 м.
Режим общего битрейта : Переменный
Общий поток : 35,0 Мбит/сек
Название фильма : Ангелы Чарли.BDRemux. thx: SPOMOPS
Дата кодирования : UTC 2015-11-15 05:10:56
Программа кодирования : mkvmerge v6.1.0 ('Old Devil') built on Mar 4 2013 09:10:42
Библиотека кодирования : libebml v1.3.0 + libmatroska v1.4.0

Видео
Идентификатор : 1
Формат : AVC
Формат/Информация : Advanced Video Codec
Профиль формата : High@L4.1
Параметр CABAC формата : Да
Параметр ReFrames формата : 2 кадра
Идентификатор кодека : V_MPEG4/ISO/AVC
Продолжительность : 1 ч. 38 м.
Вид битрейта : Переменный
Ширина : 1920 пикселей
Высота : 1080 пикселей
Соотношение сторон : 16:9
Режим частоты кадров : Постоянный
Частота кадров : 23,976 кадра/сек
Цветовое пространство : YUV
Субдискретизация насыщенности : 4:2:0
Битовая глубина : 8 бит
Тип развёртки : Прогрессивная
Default : Да
Forced : Нет

Аудио #1
Идентификатор : 2
Формат : DTS
Формат/Информация : Digital Theater Systems
Профиль формата : MA / Core
Режим : 16
Параметр Endianness формата : Big
Идентификатор кодека : A_DTS
Продолжительность : 1 ч. 38 м.
Вид битрейта : Переменный
Битрейт : Неизвестно / 1509 Кбит/сек
Каналы : 6 каналов
Расположение каналов : Front: L C R, Side: L R, LFE
Частота : 48,0 КГц
Битовая глубина : 24 бит
Метод сжатия : Без потерь / Lossy
Заголовок : Английский DTS-HD MA 5.1 / 4131 kbps - оригинал
Язык : English
Default : Нет
Forced : Нет

Аудио #2
Идентификатор : 3
Формат : AC-3
Формат/Информация : Audio Coding 3
Расширение режима : CM (complete main)
Параметр Endianness формата : Big
Идентификатор кодека : A_AC3
Продолжительность : 1 ч. 38 м.
Вид битрейта : Постоянный
Битрейт : 448 Кбит/сек
Каналы : 6 каналов
Расположение каналов : Front: L C R, Side: L R, LFE
Частота : 48,0 КГц
Битовая глубина : 16 бит
Метод сжатия : С потерями
Размер потока : 315 Мбайт (1%)
Заголовок : Русский АС3 448 kbps - дубляж
Язык : Russian
Default : Да
Forced : Нет

Аудио #3
Идентификатор : 4
Формат : AC-3
Формат/Информация : Audio Coding 3
Расширение режима : CM (complete main)
Параметр Endianness формата : Big
Идентификатор кодека : A_AC3
Продолжительность : 1 ч. 38 м.
Вид битрейта : Постоянный
Битрейт : 448 Кбит/сек
Каналы : 6 каналов
Расположение каналов : Front: L C R, Side: L R, LFE
Частота : 48,0 КГц
Битовая глубина : 16 бит
Метод сжатия : С потерями
Размер потока : 315 Мбайт (1%)
Заголовок : Русский АС3 448 kbps - ПМ
Язык : Russian
Default : Нет
Forced : Нет

Аудио #4
Идентификатор : 5
Формат : DTS
Формат/Информация : Digital Theater Systems
Профиль формата : MA / Core
Режим : 16
Параметр Endianness формата : Big
Идентификатор кодека : A_DTS
Продолжительность : 1 ч. 38 м.
Вид битрейта : Переменный
Битрейт : Неизвестно / 1509 Кбит/сек
Каналы : 6 каналов
Расположение каналов : Front: L C R, Side: L R, LFE
Частота : 48,0 КГц
Битовая глубина : 24 бит
Метод сжатия : Без потерь / Lossy
Заголовок : Русский DTS-HD MA 4144 kbps - Визгунов
Язык : Russian
Default : Нет
Forced : Нет

Аудио #5
Идентификатор : 6
Формат : AC-3
Формат/Информация : Audio Coding 3
Расширение режима : CM (complete main)
Параметр Endianness формата : Big
Идентификатор кодека : A_AC3
Продолжительность : 1 ч. 38 м.
Вид битрейта : Постоянный
Битрейт : 448 Кбит/сек
Каналы : 6 каналов
Расположение каналов : Front: L C R, Side: L R, LFE
Частота : 48,0 КГц
Битовая глубина : 16 бит
Метод сжатия : С потерями
Размер потока : 315 Мбайт (1%)
Заголовок : Русский AC3, 448 Kbps -Володарский
Язык : Russian
Default : Нет
Forced : Нет

Аудио #6
Идентификатор : 7
Формат : AC-3
Формат/Информация : Audio Coding 3
Расширение режима : CM (complete main)
Параметр Endianness формата : Big
Идентификатор кодека : A_AC3
Продолжительность : 1 ч. 38 м.
Вид битрейта : Постоянный
Битрейт : 384 Кбит/сек
Каналы : 6 каналов
Расположение каналов : Front: L C R, Side: L R, LFE
Частота : 48,0 КГц
Битовая глубина : 16 бит
Метод сжатия : С потерями
Размер потока : 270 Мбайт (1%)
Заголовок : Украинский AC3, 384 Kbps - Многоголосный закадровый
Язык : Ukrainian
Default : Нет
Forced : Нет

Текст #1
Идентификатор : 8
Формат : UTF-8
Идентификатор кодека : S_TEXT/UTF8
Идентификатор кодека/Информация : UTF-8 Plain Text
Заголовок : Русские
Язык : Russian
Default : Нет
Forced : Нет

Текст #2
Идентификатор : 9
Формат : UTF-8
Идентификатор кодека : S_TEXT/UTF8
Идентификатор кодека/Информация : UTF-8 Plain Text
Заголовок : Русские
Язык : Russian
Default : Нет
Forced : Нет

Текст #3
Идентификатор : 10
Формат : UTF-8
Идентификатор кодека : S_TEXT/UTF8
Идентификатор кодека/Информация : UTF-8 Plain Text
Заголовок : Английские
Язык : English
Default : Нет
Forced : Нет

Текст #4
Идентификатор : 11
Формат : UTF-8
Идентификатор кодека : S_TEXT/UTF8
Идентификатор кодека/Информация : UTF-8 Plain Text
Заголовок : Английские
Язык : English
Default : Нет
Forced : Нет

Меню
00:00:00.000 : :Chapter 01
00:05:23.448 : :Chapter 02
00:11:30.606 : :Chapter 03
00:18:14.092 : :Chapter 04
00:23:14.601 : :Chapter 05
00:28:45.473 : :Chapter 06
00:35:33.548 : :Chapter 07
00:39:43.672 : :Chapter 08
00:48:38.749 : :Chapter 09
00:52:18.677 : :Chapter 10
00:59:11.464 : :Chapter 11
01:03:02.737 : :Chapter 12
01:10:10.164 : :Chapter 13
01:15:42.079 : :Chapter 14
01:20:49.386 : :Chapter 15
01:23:20.078 : :Chapter 16

Общее
Уникальный идентификатор : 213375103944284947678253851558190012438 (0xA0868CDA62C79314922F34D568505816)
Полное имя : D:\РЕМУКС!!!!!\Ангелы Чарли.BDRemux..mkv
Формат : Matroska
Версия формата : Version 4 / Version 2
Размер файла : 24,0 Гбайт
Продолжительность : 1 ч. 38 м.
Режим общего битрейта : Переменный
Общий поток : 35,0 Мбит/сек
Название фильма : Ангелы Чарли.BDRemux. thx: SPOMOPS
Дата кодирования : UTC 2015-11-15 05:10:56
Программа кодирования : mkvmerge v6.1.0 ('Old Devil') built on Mar 4 2013 09:10:42
Библиотека кодирования : libebml v1.3.0 + libmatroska v1.4.0

Видео
Идентификатор : 1
Формат : AVC
Формат/Информация : Advanced Video Codec
Профиль формата : High@L4.1
Параметр CABAC формата : Да
Параметр ReFrames формата : 2 кадра
Идентификатор кодека : V_MPEG4/ISO/AVC
Продолжительность : 1 ч. 38 м.
Вид битрейта : Переменный
Ширина : 1920 пикселей
Высота : 1080 пикселей
Соотношение сторон : 16:9
Режим частоты кадров : Постоянный
Частота кадров : 23,976 кадра/сек
Цветовое пространство : YUV
Субдискретизация насыщенности : 4:2:0
Битовая глубина : 8 бит
Тип развёртки : Прогрессивная
Default : Да
Forced : Нет

Аудио #1
Идентификатор : 2
Формат : DTS
Формат/Информация : Digital Theater Systems
Профиль формата : MA / Core
Режим : 16
Параметр Endianness формата : Big
Идентификатор кодека : A_DTS
Продолжительность : 1 ч. 38 м.
Вид битрейта : Переменный
Битрейт : Неизвестно / 1509 Кбит/сек
Каналы : 6 каналов
Расположение каналов : Front: L C R, Side: L R, LFE
Частота : 48,0 КГц
Битовая глубина : 24 бит
Метод сжатия : Без потерь / Lossy
Заголовок : Английский DTS-HD MA 5.1 / 4131 kbps - оригинал
Язык : English
Default : Нет
Forced : Нет

Аудио #2
Идентификатор : 3
Формат : AC-3
Формат/Информация : Audio Coding 3
Расширение режима : CM (complete main)
Параметр Endianness формата : Big
Идентификатор кодека : A_AC3
Продолжительность : 1 ч. 38 м.
Вид битрейта : Постоянный
Битрейт : 448 Кбит/сек
Каналы : 6 каналов
Расположение каналов : Front: L C R, Side: L R, LFE
Частота : 48,0 КГц
Битовая глубина : 16 бит
Метод сжатия : С потерями
Размер потока : 315 Мбайт (1%)
Заголовок : Русский АС3 448 kbps - дубляж
Язык : Russian
Default : Да
Forced : Нет

Аудио #3
Идентификатор : 4
Формат : AC-3
Формат/Информация : Audio Coding 3
Расширение режима : CM (complete main)
Параметр Endianness формата : Big
Идентификатор кодека : A_AC3
Продолжительность : 1 ч. 38 м.
Вид битрейта : Постоянный
Битрейт : 448 Кбит/сек
Каналы : 6 каналов
Расположение каналов : Front: L C R, Side: L R, LFE
Частота : 48,0 КГц
Битовая глубина : 16 бит
Метод сжатия : С потерями
Размер потока : 315 Мбайт (1%)
Заголовок : Русский АС3 448 kbps - ПМ
Язык : Russian
Default : Нет
Forced : Нет

Аудио #4
Идентификатор : 5
Формат : DTS
Формат/Информация : Digital Theater Systems
Профиль формата : MA / Core
Режим : 16
Параметр Endianness формата : Big
Идентификатор кодека : A_DTS
Продолжительность : 1 ч. 38 м.
Вид битрейта : Переменный
Битрейт : Неизвестно / 1509 Кбит/сек
Каналы : 6 каналов
Расположение каналов : Front: L C R, Side: L R, LFE
Частота : 48,0 КГц
Битовая глубина : 24 бит
Метод сжатия : Без потерь / Lossy
Заголовок : Русский DTS-HD MA 4144 kbps - Визгунов
Язык : Russian
Default : Нет
Forced : Нет

Аудио #5
Идентификатор : 6
Формат : AC-3
Формат/Информация : Audio Coding 3
Расширение режима : CM (complete main)
Параметр Endianness формата : Big
Идентификатор кодека : A_AC3
Продолжительность : 1 ч. 38 м.
Вид битрейта : Постоянный
Битрейт : 448 Кбит/сек
Каналы : 6 каналов
Расположение каналов : Front: L C R, Side: L R, LFE
Частота : 48,0 КГц
Битовая глубина : 16 бит
Метод сжатия : С потерями
Размер потока : 315 Мбайт (1%)
Заголовок : Русский AC3, 448 Kbps -Володарский
Язык : Russian
Default : Нет
Forced : Нет

Аудио #6
Идентификатор : 7
Формат : AC-3
Формат/Информация : Audio Coding 3
Расширение режима : CM (complete main)
Параметр Endianness формата : Big
Идентификатор кодека : A_AC3
Продолжительность : 1 ч. 38 м.
Вид битрейта : Постоянный
Битрейт : 384 Кбит/сек
Каналы : 6 каналов
Расположение каналов : Front: L C R, Side: L R, LFE
Частота : 48,0 КГц
Битовая глубина : 16 бит
Метод сжатия : С потерями
Размер потока : 270 Мбайт (1%)
Заголовок : Украинский AC3, 384 Kbps - Многоголосный закадровый
Язык : Ukrainian
Default : Нет
Forced : Нет

Текст #1
Идентификатор : 8
Формат : UTF-8
Идентификатор кодека : S_TEXT/UTF8
Идентификатор кодека/Информация : UTF-8 Plain Text
Заголовок : Русские
Язык : Russian
Default : Нет
Forced : Нет

Текст #2
Идентификатор : 9
Формат : UTF-8
Идентификатор кодека : S_TEXT/UTF8
Идентификатор кодека/Информация : UTF-8 Plain Text
Заголовок : Русские
Язык : Russian
Default : Нет
Forced : Нет

Текст #3
Идентификатор : 10
Формат : UTF-8
Идентификатор кодека : S_TEXT/UTF8
Идентификатор кодека/Информация : UTF-8 Plain Text
Заголовок : Английские
Язык : English
Default : Нет
Forced : Нет

Текст #4
Идентификатор : 11
Формат : UTF-8
Идентификатор кодека : S_TEXT/UTF8
Идентификатор кодека/Информация : UTF-8 Plain Text
Заголовок : Английские
Язык : English
Default : Нет
Forced : Нет

Меню
00:00:00.000 : :Chapter 01
00:05:23.448 : :Chapter 02
00:11:30.606 : :Chapter 03
00:18:14.092 : :Chapter 04
00:23:14.601 : :Chapter 05
00:28:45.473 : :Chapter 06
00:35:33.548 : :Chapter 07
00:39:43.672 : :Chapter 08
00:48:38.749 : :Chapter 09
00:52:18.677 : :Chapter 10
00:59:11.464 : :Chapter 11
01:03:02.737 : :Chapter 12
01:10:10.164 : :Chapter 13
01:15:42.079 : :Chapter 14
01:20:49.386 : :Chapter 15
01:23:20.078 : :Chapter 16



_________________
Проголосуй за трекер Открытый торрент трекер - RUS-MEDIA.ORG

Проголосуй Открытый торрент трекер - RUS-MEDIA.ORG


Вернуться к началу
 Профиль Отправить личное сообщение  
 
   Похожие торренты   Автор   Торрент   Размер 
В этой теме нет новых непрочитанных сообщений. Ангелы Чарли / Charlie's Angels [боевик, триллер, комедия, криминал, 2000] WEB-DL 1080p, Dub [Open Matte]

salma3

35 | 24

9.9 ГБ

В этой теме нет новых непрочитанных сообщений. Ангелы Чарли / Charlie's Angels [боевик, триллер, комедия, 2000] WEB-DLRip, Dub [Open Matte]

salma3

14 | 12

1.45 ГБ

В этой теме нет новых непрочитанных сообщений. Ангелы Чарли / Charlie's Angels [боевик, триллер, комедия, 2000] WEB-DLRip-AVC, Dub [Open Matte]

salma3

7 | 2

2.18 ГБ

В этой теме нет новых непрочитанных сообщений. Ангелы Чарли / Charlie's Angels [боевик, комедия, приключения, 2000] HDRip-AVC, Dub

salma3

92 | 46

745.65 МБ

В этой теме нет новых непрочитанных сообщений. Ангелы Чарли 2: Только вперед / Charlie's Angels: Full Throttle [боевик, комедия, криминал, 2003] BDRip-AVC, Dub

salma3

18 | 6

2.18 ГБ

В этой теме нет новых непрочитанных сообщений. Ангелы Чарли 2: Только вперед / Charlie's Angels: Full Throttle [боевик, комедия, криминал, 2003] HDRip-AVC, Dub

salma3

103 | 44

745.51 МБ

В этой теме нет новых непрочитанных сообщений. Ангелы Чарли 2: Только вперед / Charlie's Angels: Full Throttle [боевик, комедия, криминал, 2003] HDTV 1080i, Dub [Open Matte]

salma3

0 | 1

3.91 ГБ


Начать новую тему Ответить на тему  [ 1 сообщение ] 




Для Мосгорсуда, Роскомнадзора и рекламодателей:: mosgorsud-torrent[собачка]yandex.ru
cron