Торрент файл
скачать торрент магнет ссылка Добавлен: 19 окт 2017, 01:00
Размер: 18.8 ГБ
Сидеров: 1
Личеров: 2
Статус: (salma3)
Автор

СообщениеДобавлено: 19 окт 2017, 01:00 

Не в сети
Супермодератор
Аватара пользователя
Дата регистрации:
15 фев 2012, 16:44
Возраст: 28
Спасибо: 6642 / 2146
Сообщения: 45738
Год выхода: 1992
Жанр: драма, комедия, спорт
Выпущено: США, Columbia Pictures Corporation, Parkway Productions
Продолжительность: 02:07:59
Перевод: Дублированный, профессиональный многоголосый, авторский одноголосый
Режисcер: Пенни Маршалл
В ролях: Том Хэнкс, Джина Дэвис, Мадонна, Лори Петти, Джон Ловиц, Дэвид Стрэтэйрн, Гэрри Маршалл, Билл Пуллман, Меган Кэвэна, Рози О’Доннелл

О фильме:
Джимми Дуган — бывший бейсболист, чьи славные дни в Большой Лиге уже миновали. Его приглашают тренером в Женскую Бейсбольную Лигу, созданную в 1943 году, когда все мужчины были на войне. Видя отчаянное стремление и решительность своих подопечных, он забывает о своем пессимизме и обретает уверенность в себе и своей команде.


Файл
Качество: BDRip 1080p
Видео: 1920х800 (2.40:1), 23.976, 16500 кбит/с, High@L4.1, 0.449 bit/pixel
Аудио 1: Русский: AC3, 6ch (L, C, R, Ls, Rs +LFE), 448 кбит/с |Дублированный|
Аудио 2: Русский: AC3, 6ch (L, C, R, Ls, Rs +LFE), 448 кбит/с |MVO|
Аудио 3: Русский: AC3, 2ch (L,R), 192 кбит/с |MVO, СТС|
Аудио 4: Русский: AC3, 2ch (L,R), 192 кбит/с |MVO, ОРТ|
Аудио 5: Русский: DTS, 6ch (L, C, R, Ls, Rs +LFE), 1509  кбит/с |AVO, А. Михалев|
Аудио 6: Русский: AC3, 2ch (L,R), 192 кбит/с |AVO, В. Горчаков|
Аудио 7: Английский: DTS, 6ch (L, C, R, Ls, Rs +LFE), 1509 кбит/с |Оригинал|
Субтитры: Русские, английские

Релиз от:


General
Unique ID : 204573267965599604422270666926803391164 (0x99E760D59F2F5ABDAED9542EF7E812BC)
Complete name : A.League.of.Their.Own.1992.1080p.BDRip.x264.ac3.dts.6ru.en.mkv
Format : Matroska
Format version : Version 4 / Version 2
File size : 18.8 GiB
Duration : 2 h 7 min
Overall bit rate : 21.0 Mb/s
Encoded date : UTC 2017-09-10 10:30:45
Writing application : mkvmerge v7.4.0 ('Circles') 64bit built on Dec 12 2014 12:19:56
Writing library : libebml v1.3.0 + libmatroska v1.4.1

Video
ID : 1
Format : AVC
Format/Info : Advanced Video Codec
Format profile : High@L4.1
Format settings, CABAC : Yes
Format settings, RefFrames : 5 frames
Codec ID : V_MPEG4/ISO/AVC
Duration : 2 h 7 min
Bit rate : 16.5 Mb/s
Width : 1 920 pixels
Height : 800 pixels
Display aspect ratio : 2.40:1
Frame rate mode : Constant
Frame rate : 23.976 (24000/1001) FPS
Color space : YUV
Chroma subsampling : 4:2:0
Bit depth : 8 bits
Scan type : Progressive
Bits/(Pixel*Frame) : 0.449
Stream size : 14.4 GiB (77%)
Title : A.League.of.Their.Own.1992.1080p.BDRip.x264.6ru.en
Writing library : x264 core 148 r2744kMod b97ae06
Encoding settings : cabac=1 / ref=5 / deblock=1:-3:-3 / analyse=0x3:0x113 / me=umh / subme=11 / psy=1 / fade_compensate=0.00 / psy_rd=1.00:0.05 / mixed_ref=1 / me_range=32 / chroma_me=1 / trellis=2 / 8x8dct=1 / cqm=0 / deadzone=21,11 / fast_pskip=0 / chroma_qp_offset=-3 / threads=6 / lookahead_threads=2 / sliced_threads=0 / nr=0 / decimate=0 / interlaced=0 / bluray_compat=0 / constrained_intra=0 / bframes=8 / b_pyramid=2 / b_adapt=2 / b_bias=0 / direct=3 / weightb=1 / open_gop=0 / weightp=2 / keyint=250 / keyint_min=23 / scenecut=40 / intra_refresh=0 / rc=2pass / mbtree=0 / bitrate=16536 / ratetol=1.0 / qcomp=0.60 / qpmin=0 / qpmax=69 / qpstep=4 / cplxblur=20.0 / qblur=0.5 / ip_ratio=1.40 / pb_ratio=1.30 / aq=2:0.80
Language : English
Default : Yes
Forced : No
Color range : Limited
Color primaries : BT.709
Transfer characteristics : BT.709
Matrix coefficients : BT.709

Audio #1
ID : 2
Format : AC-3
Format/Info : Audio Coding 3
Format settings, Endianness : Big
Codec ID : A_AC3
Duration : 2 h 7 min
Bit rate mode : Constant
Bit rate : 448 kb/s
Channel(s) : 6 channels
Channel positions : Front: L C R, Side: L R, LFE
Sampling rate : 48.0 kHz
Frame rate : 31.250 FPS (1536 SPF)
Bit depth : 16 bits
Compression mode : Lossy
Stream size : 410 MiB (2%)
Title : Русский, AC3, 6 ch, 448 Кбит/с |Дублированный|
Language : Russian
Service kind : Complete Main
Default : Yes
Forced : No

Audio #2
ID : 3
Format : AC-3
Format/Info : Audio Coding 3
Format settings, Endianness : Big
Codec ID : A_AC3
Duration : 2 h 7 min
Bit rate mode : Constant
Bit rate : 448 kb/s
Channel(s) : 6 channels
Channel positions : Front: L C R, Side: L R, LFE
Sampling rate : 48.0 kHz
Frame rate : 31.250 FPS (1536 SPF)
Bit depth : 16 bits
Compression mode : Lossy
Stream size : 410 MiB (2%)
Title : Русский, AC3, 6 ch, 448 Кбит/с |n/a|
Language : Russian
Service kind : Complete Main
Default : No
Forced : No

Audio #3
ID : 4
Format : AC-3
Format/Info : Audio Coding 3
Format settings, Endianness : Big
Codec ID : A_AC3
Duration : 2 h 7 min
Bit rate mode : Constant
Bit rate : 192 kb/s
Channel(s) : 2 channels
Channel positions : Front: L R
Sampling rate : 48.0 kHz
Frame rate : 31.250 FPS (1536 SPF)
Bit depth : 16 bits
Compression mode : Lossy
Stream size : 176 MiB (1%)
Title : Русский, AC3, 2 ch, 192 Кбит/с |СТС|
Language : Russian
Service kind : Complete Main
Default : No
Forced : No

Audio #4
ID : 5
Format : AC-3
Format/Info : Audio Coding 3
Format settings, Endianness : Big
Codec ID : A_AC3
Duration : 2 h 7 min
Bit rate mode : Constant
Bit rate : 192 kb/s
Channel(s) : 2 channels
Channel positions : Front: L R
Sampling rate : 48.0 kHz
Frame rate : 31.250 FPS (1536 SPF)
Bit depth : 16 bits
Compression mode : Lossy
Stream size : 176 MiB (1%)
Title : Русский, AC3, 2 ch, 192 Кбит/с |ОРТ|
Language : Russian
Service kind : Complete Main
Default : No
Forced : No

Audio #5
ID : 6
Format : DTS
Format/Info : Digital Theater Systems
Mode : 16
Format settings, Endianness : Big
Codec ID : A_DTS
Duration : 2 h 7 min
Bit rate mode : Constant
Bit rate : 1 509 kb/s
Channel(s) : 6 channels
Channel positions : Front: L C R, Side: L R, LFE
Sampling rate : 48.0 kHz
Frame rate : 93.750 FPS (512 SPF)
Bit depth : 24 bits
Compression mode : Lossy
Stream size : 1.35 GiB (7%)
Title : Русский, DTS, 6 ch, 1510 Кбит/с |А.Михалев|
Language : Russian
Default : No
Forced : No

Audio #6
ID : 7
Format : AC-3
Format/Info : Audio Coding 3
Format settings, Endianness : Big
Codec ID : A_AC3
Duration : 2 h 7 min
Bit rate mode : Constant
Bit rate : 192 kb/s
Channel(s) : 2 channels
Channel positions : Front: L R
Sampling rate : 48.0 kHz
Frame rate : 31.250 FPS (1536 SPF)
Bit depth : 16 bits
Compression mode : Lossy
Stream size : 176 MiB (1%)
Title : Русский, AC3, 2 ch, 192 Кбит/с |В.Горчаков|
Language : Russian
Service kind : Complete Main
Default : No
Forced : No

Audio #7
ID : 8
Format : DTS
Format/Info : Digital Theater Systems
Mode : 16
Format settings, Endianness : Big
Codec ID : A_DTS
Duration : 2 h 7 min
Bit rate mode : Constant
Bit rate : 1 509 kb/s
Channel(s) : 6 channels
Channel positions : Front: L C R, Side: L R, LFE
Sampling rate : 48.0 kHz
Frame rate : 93.750 FPS (512 SPF)
Bit depth : 24 bits
Compression mode : Lossy
Stream size : 1.35 GiB (7%)
Title : Английский, DTS, 6 ch, 1510 Кбит/с
Language : English
Default : No
Forced : No

Text #1
ID : 9
Format : UTF-8
Codec ID : S_TEXT/UTF8
Codec ID/Info : UTF-8 Plain Text
Title : Русский
Language : Russian
Default : Yes
Forced : No

Text #2
ID : 10
Format : UTF-8
Codec ID : S_TEXT/UTF8
Codec ID/Info : UTF-8 Plain Text
Title : Английский
Language : English
Default : No
Forced : No
x264 [info]: frame I:1562 Avg QP:15.65 size: 291547
x264 [info]: frame P:37627 Avg QP:17.85 size: 150325
x264 [info]: frame B:144939 Avg QP:19.82 size: 67334


_________________
Проголосуй за трекер Открытый торрент трекер - RUS-MEDIA.ORG

Проголосуй Открытый торрент трекер - RUS-MEDIA.ORG



реклама партнёра


Вернуться к началу
 Профиль Отправить личное сообщение  
 
   Похожие торренты   Автор   Торрент   Размер 
В этой теме нет новых непрочитанных сообщений. Их собственная лига / A League of Their Own [драма, комедия, спорт, 1992] BDRip 1080p, Dub

salma3

4 | 7

18.8 ГБ

В этой теме нет новых непрочитанных сообщений. Лига Богов / League of Gods [фэнтези, исторический, 2016] BDRip 1080p, Dvo

salma3

65 | 28

7.76 ГБ

В этой теме нет новых непрочитанных сообщений. Божьи коровки / Ladybugs [комедия, семейный, спорт, 1992] BDRip 1080p, 2Dvo+Sub

salma3

19 | 4

10.09 ГБ

В этой теме нет новых непрочитанных сообщений. Лига Справедливости: Трон Атлантиды / Justice League: Throne of Atlantis (Джей Олива, Этан Сполдинг) [боевик, приключения, 2015] BDRip 1080p, mvo+sub [Чистый звук]

Dracon

20 | 3

6.68 ГБ

В этой теме нет новых непрочитанных сообщений. Лига справедливости: Боги и монстры / Justice League: Gods and Monsters (Сэм Лью) [боевик, мультфильм, 2015] BDRip, Mvo

Dracon

794 | 69

1.45 ГБ

В этой теме нет новых непрочитанных сообщений. Бетховен / Beethoven [драма, комедия, семейный, 1992] BDRip 1080p, Dub

salma3

11 | 10

11.8 ГБ

В этой теме нет новых непрочитанных сообщений. Лига Справедливости: Трон Атлантиды / Justice League: Throne of Atlantis (Джей Олива, Этан Сполдинг) [боевик, приключения, 2015] BDRip 720p, mvo+sub [Чистый звук]

Dracon

30 | 5

2.29 ГБ


Начать новую тему Ответить на тему  [ 1 сообщение ] 




Для Мосгорсуда, Роскомнадзора и рекламодателей:: mosgorsud-torrent[собачка]yandex.ru