Торрент файл
скачать торрент магнет ссылка Добавлен: 18 окт 2017, 10:58
Размер: 24.88 ГБ
Сидеров: 21
Личеров: 24
Статус: (salma3)
Автор

СообщениеДобавлено: 18 окт 2017, 10:58 

Не в сети
Супермодератор
Аватара пользователя
Дата регистрации:
15 фев 2012, 16:44
Возраст: 28
Спасибо: 6565 / 2130
Сообщения: 43739
Год выхода: 1984
Жанр: триллер, драма, мелодрама
Режиссер: Клод Пиното

В ролях: Лино Вентура, Леа Массари, Жан Пуарэ, Роже Планшон, Элизабет Буржин, Беатрис Аженен, Жан-Пьер Бакри, Роберт Хоффманн, Майкл Моррис, Эрик Демарец и др.

Описание: В промозглый вечер Бастьен становится жертвой неизвестных, жестоко избивших его ни за что ни про что. Полагая, что это случайность, Бастьен попробовал забыть произошедшее с ним, но дальнейшие события заставили его задуматься…



Страна: Франция
Продолжительность: 01:48:14
Перевод 1: Профессиональный (дублированный) - Киностудия «Мосфильм» + фрагменты закадрового перевода [В советском прокате фильм был купирован. Отсутствующие в дубляже «Мосфильм» фрагменты восполнены закадровым переводом.]
Перевод 2: Профессиональный (двухголосый закадровый)
Субтитры: французские (Forced, SDH), английские (English, Full)

Файл
Качество: BDRemux 1080р
Видео: 1920x1080 (16:9), 24.000 fps, AVC, 32245 kbps
Аудио 1: Русский, 48.0 KHz, AC3, 1 ch, 192 kbps - Дубляж | «Мосфильм»
Аудио 2: Русский, 48.0 KHz, AC3, 1 ch, 192 kbps - Закадровый
Аудио 3: French, 48.0 KHz, FLAC, 2 ch, 284 kbps

General
Unique ID : 245796426176485987671189915430700319853 (0xB8EAAB740F0AB9B0A07F2F210F3E046D)
Complete name : La.7eme.cible.1984.BDRemux.1080p
Format : Matroska
Format version : Version 4 / Version 2
File size : 24.9 GiB
Duration : 1h 48mn
Overall bit rate mode : Variable
Overall bit rate : 32.9 Mbps
Encoded date : UTC 2016-05-08 19:43:26
Writing application : mkvmerge v8.3.0 ('Over the Horizon') 64bit
Writing library : libebml v1.3.1 + libmatroska v1.4.2
Cover : Yes
Attachments : Cover.jpg

Video
ID : 1
Format : AVC
Format/Info : Advanced Video Codec
Format profile : High@L4.1
Format settings, CABAC : Yes
Format settings, ReFrames : 4 frames
Codec ID : V_MPEG4/ISO/AVC
Duration : 1h 48mn
Bit rate mode : Variable
Maximum bit rate : 35.0 Mbps
Width : 1 920 pixels
Height : 1 080 pixels
Display aspect ratio : 16:9
Frame rate mode : Constant
Frame rate : 24.000 fps
Standard : NTSC
Color space : YUV
Chroma subsampling : 4:2:0
Bit depth : 8 bits
Scan type : Progressive
Language : French
Default : Yes
Forced : No
Color range : Limited
Color primaries : BT.709
Transfer characteristics : BT.709
Matrix coefficients : BT.709

Audio #1
ID : 2
Format : AC-3
Format/Info : Audio Coding 3
Mode extension : CM (complete main)
Format settings, Endianness : Big
Codec ID : A_AC3
Duration : 1h 48mn
Bit rate mode : Constant
Bit rate : 192 Kbps
Channel(s) : 1 channel
Channel positions : Front: C
Sampling rate : 48.0 KHz
Frame rate : 31.250 fps (1536 spf)
Compression mode : Lossy
Stream size : 149 MiB (1%)
Title : Дубляж | "Мосфильм"
Language : Russian
Default : Yes
Forced : No

Audio #2
ID : 3
Format : AC-3
Format/Info : Audio Coding 3
Mode extension : CM (complete main)
Format settings, Endianness : Big
Codec ID : A_AC3
Duration : 1h 48mn
Bit rate mode : Constant
Bit rate : 192 Kbps
Channel(s) : 1 channel
Channel positions : Front: C
Sampling rate : 48.0 KHz
Frame rate : 31.250 fps (1536 spf)
Compression mode : Lossy
Stream size : 149 MiB (1%)
Title : Закадровый
Language : Russian
Default : No
Forced : No

Audio #3
ID : 4
Format : FLAC
Format/Info : Free Lossless Audio Codec
Codec ID : A_FLAC
Duration : 1h 48mn
Bit rate mode : Variable
Channel(s) : 2 channels
Channel positions : Front: L R
Sampling rate : 48.0 KHz
Bit depth : 16 bits
Writing library : libFLAC 1.2.1 (UTC 2007-09-17)
Language : French
Default : No
Forced : No

Text #1
ID : 5
Format : UTF-8
Codec ID : S_TEXT/UTF8
Codec ID/Info : UTF-8 Plain Text
Title : Forced
Language : French
Default : No
Forced : No

Text #2
ID : 6
Format : UTF-8
Codec ID : S_TEXT/UTF8
Codec ID/Info : UTF-8 Plain Text
Title : SDH
Language : French
Default : No
Forced : No

Text #3
ID : 7
Format : UTF-8
Codec ID : S_TEXT/UTF8
Codec ID/Info : UTF-8 Plain Text
Language : English
Default : No
Forced : No

Menu
00:00:00.000 : en:00:00:00.000
00:09:17.166 : en:00:09:17.166
00:17:37.750 : en:00:17:37.750
00:26:51.665 : en:00:26:51.665
00:35:31.375 : en:00:35:31.375
00:43:13.791 : en:00:43:13.791
00:54:13.958 : en:00:54:13.958
01:03:21.291 : en:01:03:21.291
01:12:47.957 : en:01:12:47.957
01:23:27.457 : en:01:23:27.457
01:30:35.750 : en:01:30:35.750
01:39:21.957 : en:01:39:21.957


_________________
Проголосуй за трекер Открытый торрент трекер - RUS-MEDIA.ORG

Проголосуй Открытый торрент трекер - RUS-MEDIA.ORG



реклама партнёра


Вернуться к началу
 Профиль Отправить личное сообщение  
 
   Похожие торренты   Автор   Торрент   Размер 
В этой теме нет новых непрочитанных сообщений. Седьмая мишень / La 7eme cible [триллер, драма, мелодрама, 1984] BDRip 720p, Mvo+Sub

salma3

171 | 3

4.82 ГБ

В этой теме нет новых непрочитанных сообщений. Седьмая мишень / La 7eme cible [триллер, драма, мелодрама, 1984] BDRip 1080p, Mvo+Sub

salma3

23 | 7

13.9 ГБ

В этой теме нет новых непрочитанных сообщений. Нежная мишень / Cible emouvante [триллер, драма, комедия, криминал, 1993] DVDRip, Mvo

salma3

54 | 3

1.32 ГБ

В этой теме нет новых непрочитанных сообщений. Беспорядок и ночь / Le désordre et la nuit [триллер, драма, мелодрама, 1958] BDRemux 1080р, Mvo

salma3

10 | 13

25.45 ГБ

В этой теме нет новых непрочитанных сообщений. Расчленитель / The Mutilator [ужасы, 1984] BDRemux 1080р, Avo

salma3

7 | 6

21.75 ГБ

В этой теме нет новых непрочитанных сообщений. Класс 1984 / Class of 1984 [боевик, триллер, драма, криминал, 1982] BDRemux 1080p, Avo+Sub

salma3

10 | 2

28.28 ГБ

В этой теме нет новых непрочитанных сообщений. Преступление на почве страсти / Crimes of Passion [триллер, драма, мелодрама, 1984] BDRemux 1080p, Mvo

salma3

0 | 2

30.06 ГБ


Начать новую тему Ответить на тему  [ 1 сообщение ] 




Для Мосгорсуда, Роскомнадзора и рекламодателей:: mosgorsud-torrent[собачка]yandex.ru