Торрент файл
скачать торрент магнет ссылка Добавлен: 17 окт 2017, 11:19
Размер: 18.93 ГБ
Сидеров: 17
Личеров: 10
Статус: (salma3)
Автор

СообщениеДобавлено: 17 окт 2017, 11:19 

Не в сети
Супермодератор
Аватара пользователя
Дата регистрации:
15 фев 2012, 16:44
Возраст: 28
Спасибо: 7205 / 2147
Сообщения: 65334
Год выхода: 2005
Жанр: Фэнтези, драма, мелодрама
Режиссер: Люк Бессон

В ролях: Жамель Деббуз, Рье Расмуссен, Жильбер Мелки, Серж Рябукин, Аким Шир, Эрик Балье, Луи Пора, Венус Бун, Жером Жесдон, Мишель Белло, Мишель Шесно, Оливье Клавери, Соланж Милход,

О фильме:
28-летний Андре должен десятки тысяч долларов различным бандитам по всему Парижу. Когда подходит срок расплаты, он понимает, что шансов расплатиться - нет. И в полиции, и в американском посольстве ему отказывают в помощи. Но вот, решив покончить с собой, он видит на мосту сногсшибательную красотку в очень маленьком черном платье, которая прыгает в Сену. Андре бросается за ней. Спасенная девушка обещает помочь Андре во всем: она придумывает удивительные способы добывать деньги и помогает решить проблемы с кредиторами. Но тут Андре начинает задаваться вопросом – почему эта восхитительная девушка так старается ради него?



Страна: Франция
Продолжительность: 01:30:38
Перевод: Дублированный, авторский

Файл
Кодек: MPEG-4 AVC
Качество: BDRemux 1080p
Видео: 25146 Кбит/с, 1920x1080, 24 кадр/с
Аудио 1 - Французский : DTS-HD Master Audio 5.1, 48 kHz, 2095 kbps, 16-bit (DTS Core: 5.1, 48 kHz, 1509 kbps, 16-bit) - Оригинал
Аудио 2 - Русский : DTS Audio 5.1, 48 kHz, 768 kbps, 24-bit - Дубляж
Аудио 3 - Русский : 48 kHz, DTS, 3/2 (L,C,R,l,r) + LFE ch, ~1509 kbps avg - Авторский (Гаврилов)
Аудио 4 - Русский : 48 kHz, AC3 Dolby Digital, 2/0 (L,R) 2ch, ~ 192 kbps - Авторский (Алексеев)
Аудио 5 - Русский : 48 kHz, AC3 Dolby Digital, 2/0 (L,R) 2ch, ~ 192 kbps - Авторский (Aрхипов)
Субтитры: Русские, английские
Главы: есть


Общее
Уникальный идентификатор : 238771094655650232622921175508963785217 (0xB3A1A3DDEE41B64482A8EB43038B7A01)
Полное имя : D:\РЕМУКС!!!!!\Ангел - А.BDRemux..mkv
Формат : Matroska
Версия формата : Version 4 / Version 2
Размер файла : 18,9 Гбайт
Продолжительность : 1 ч. 30 м.
Режим общего битрейта : Переменный
Общий поток : 29,9 Мбит/сек
Название фильма : Ангел - А.BDRemux. thx: SPOMOPS
Дата кодирования : UTC 2015-12-23 06:41:16
Программа кодирования : mkvmerge v6.1.0 ('Old Devil') built on Mar 4 2013 09:10:42
Библиотека кодирования : libebml v1.3.0 + libmatroska v1.4.0

Видео
Идентификатор : 1
Формат : AVC
Формат/Информация : Advanced Video Codec
Профиль формата : High@L4.1
Параметр CABAC формата : Да
Параметр ReFrames формата : 4 кадра
Идентификатор кодека : V_MPEG4/ISO/AVC
Продолжительность : 1 ч. 30 м.
Вид битрейта : Переменный
Максимальный битрейт : 32,0 Мбит/сек
Ширина : 1920 пикселей
Высота : 1080 пикселей
Соотношение сторон : 16:9
Режим частоты кадров : Постоянный
Частота кадров : 24,000 кадра/сек
Стандарт вещания : NTSC
Цветовое пространство : YUV
Субдискретизация насыщенности : 4:2:0
Битовая глубина : 8 бит
Тип развёртки : Прогрессивная
Default : Да
Forced : Нет
Основные цвета : BT.709
Характеристики трансфера : BT.709
Коэффициенты матрицы : BT.709

Аудио #1
Идентификатор : 2
Формат : DTS
Формат/Информация : Digital Theater Systems
Профиль формата : MA / Core
Режим : 16
Параметр Endianness формата : Big
Идентификатор кодека : A_DTS
Продолжительность : 1 ч. 30 м.
Вид битрейта : Переменный
Битрейт : Неизвестно / 1509 Кбит/сек
Каналы : 6 каналов
Расположение каналов : Front: L C R, Side: L R, LFE
Частота : 48,0 КГц
Битовая глубина : 16 бит
Метод сжатия : Без потерь / Lossy
Заголовок : Французский DTS-HD M A 2095 kbps
Язык : French
Default : Нет
Forced : Нет

Аудио #2
Идентификатор : 3
Формат : DTS
Формат/Информация : Digital Theater Systems
Режим : 16
Параметр Endianness формата : Big
Идентификатор кодека : A_DTS
Продолжительность : 1 ч. 30 м.
Вид битрейта : Постоянный
Битрейт : 755 Кбит/сек
Каналы : 6 каналов
Расположение каналов : Front: L C R, Side: L R, LFE
Частота : 48,0 КГц
Битовая глубина : 24 бит
Метод сжатия : С потерями
Размер потока : 489 Мбайт (3%)
Заголовок : Русский DTS 768 kbps - дубляж
Язык : Russian
Default : Да
Forced : Нет

Аудио #3
Идентификатор : 4
Формат : DTS
Формат/Информация : Digital Theater Systems
Режим : 16
Параметр Endianness формата : Big
Идентификатор кодека : A_DTS
Продолжительность : 1 ч. 30 м.
Вид битрейта : Постоянный
Битрейт : 1509 Кбит/сек
Каналы : 6 каналов
Расположение каналов : Front: L C R, Side: L R, LFE
Частота : 48,0 КГц
Битовая глубина : 16 бит
Метод сжатия : С потерями
Размер потока : 978 Мбайт (5%)
Заголовок : Русский DTS, ~1509 kbps avg А. Гаврилов
Язык : Russian
Default : Нет
Forced : Нет

Аудио #4
Идентификатор : 5
Формат : AC-3
Формат/Информация : Audio Coding 3
Расширение режима : CM (complete main)
Параметр Endianness формата : Big
Идентификатор кодека : A_AC3
Продолжительность : 1 ч. 30 м.
Вид битрейта : Постоянный
Битрейт : 192 Кбит/сек
Каналы : 2 канала
Расположение каналов : Front: L R
Частота : 48,0 КГц
Битовая глубина : 16 бит
Метод сжатия : С потерями
Размер потока : 124 Мбайт (1%)
Заголовок : Русский AC3, ~192 kbps avg А. Алексеев
Язык : Russian
Default : Нет
Forced : Нет

Аудио #5
Идентификатор : 6
Формат : MPEG Audio
Версия формата : Version 1
Профиль формата : Layer 3
Режим : Joint stereo
Идентификатор кодека : A_MPEG/L3
Идентификатор кодека/Подсказка : MP3
Продолжительность : 1 ч. 30 м.
Вид битрейта : Постоянный
Битрейт : 192 Кбит/сек
Каналы : 2 канала
Частота : 44,1 КГц
Метод сжатия : С потерями
Размер потока : 124 Мбайт (1%)
Заголовок : Русский AC3, ~192 kbps avg - Архипов
Язык : Russian
Default : Нет
Forced : Нет

Текст #1
Идентификатор : 7
Формат : UTF-8
Идентификатор кодека : S_TEXT/UTF8
Идентификатор кодека/Информация : UTF-8 Plain Text
Заголовок : Русские
Язык : Russian
Default : Нет
Forced : Нет

Текст #2
Идентификатор : 8
Формат : ASS
Идентификатор кодека : S_TEXT/ASS
Идентификатор кодека/Информация : Advanced Sub Station Alpha
Метод сжатия : Без потерь
Заголовок : Английские
Язык : English
Default : Нет
Forced : Нет

Меню
00:00:00.000 : :Chapter 01
00:08:21.833 : :Chapter 02
00:13:30.500 : :Chapter 03
00:21:35.333 : :Chapter 04
00:30:01.708 : :Chapter 05
00:37:39.375 : :Chapter 06
00:44:27.125 : :Chapter 07
00:53:51.416 : :Chapter 08
01:00:53.625 : :Chapter 09
01:08:26.916 : :Chapter 10
01:16:38.000 : :Chapter 11
01:22:37.541 : :Chapter 12
01:25:34.000 : :Chapter 13



_________________
Проголосуй за трекер Открытый торрент трекер - RUS-MEDIA.ORG

Проголосуй Открытый торрент трекер - RUS-MEDIA.ORG


Вернуться к началу
 Профиль Отправить личное сообщение  
 
   Похожие торренты   Автор   Торрент   Размер 
В этой теме нет новых непрочитанных сообщений. Потерянный ангел / The Lost Angel [Триллер, драма, 2005] DVDRip, Mvo

salma3

102 | 4

1.37 ГБ

В этой теме нет новых непрочитанных сообщений. Потерянный ангел / The Lost Angel [Триллер, драма, 2005] DVDRip-AVC, Dvo+Sub

salma3

62 | 2

1.99 ГБ

В этой теме нет новых непрочитанных сообщений. Ночной ангел / Night Angel [ужасы, 1990] BDRemux 1080р, Dvo [НТВ+]

salma3

5 | 1

15.5 ГБ

В этой теме нет новых непрочитанных сообщений. Кафе Голубой ангел / Объект желания / Blue Angel Cafe [драма, мелодрама, 1989] DVDRip, Avo

salma3

83 | 25

1.45 ГБ

В этой теме нет новых непрочитанных сообщений. Бэтмен: Начало / Batman Begins [Фэнтези, боевик, драма, 2005] BDRemux 1080p, Dub

salma3

0 | 0

30.88 ГБ

В этой теме нет новых непрочитанных сообщений. Мой лучший любовник / Prime [драма, мелодрама, комедия, 2005] BDRemux 1080p, Dub

salma3

3 | 3

25.84 ГБ

В этой теме нет новых непрочитанных сообщений. Ангел зла / Evil Angel [Ужасы, триллер, 2009] ВDRemux 1080p, Dvo

salma3

2 | 0

17.98 ГБ


Начать новую тему Ответить на тему  [ 1 сообщение ] 




Для Мосгорсуда, Роскомнадзора и рекламодателей:: mosgorsud-torrent[собачка]yandex.ru
cron