Торрент файл
скачать торрент магнет ссылка Добавлен: 15 окт 2017, 21:25
Размер: 7.76 ГБ
Сидеров: 86
Личеров: 25
Статус: (salma3)
Автор

СообщениеДобавлено: 15 окт 2017, 21:25 

Не в сети
Супермодератор
Аватара пользователя
Дата регистрации:
15 фев 2012, 16:44
Возраст: 29
Спасибо: 7377 / 2147
Сообщения: 75818
Год выхода: 2013
Жанр: триллер, драма, криминал
Режиссер: Дэнни Бойл

В ролях: Джеймс МакЭвой, Венсан Кассель, Розарио Доусон, Дэнни Сапани, Мэттью Кросс, Вахаб Ахмед Шейх, Марк Полтимор, Таппенс Мидлтон, Саймон Кунц, Майкл Шэйффер

О фильме: Аукционер Саймон не в силах противостоять искушению — вступает в сговор с бандой грабителей и организует похищение уникального лота стоимостью в миллионы долларов. Однако налет оканчивается не совсем так, как он предполагал вначале. Аукционера оглушают ударом тупого предмета по голове, в результате которого он теряет какие бы то ни было воспоминания о том, что произошло. vРазумеется, он также забывает, куда спрятал ценную картину. Пытками добиться ответа от ничего не понимающего Саймона не удается. Тогда главарь банды решает нанять психотерапевта, чтобы она смогла выудить ценную информацию из поврежденного мозга заложника. По мере того, как девушка пробивается сквозь нейронную защиту, ставки растут как на дрожжах. Границы между страстью и жестокостью, реальностью и вымыслом тускнеют и вовсе готовы испариться. В конечном итоге становится не ясно — кто же у кого в заложниках?



Выпущено: Pathé
Продолжительность: 01:41:19
Перевод: Дублированный (лицензия)

Файл
Кодек: x264
Качество: BDRip 1080p
Видео: 1920x800 (2,40:1), 23.976 fps, 9690 kbps
Аудио #1: AC-3, 6 ch, 640 kbps (Rus)
Аудио #2: AC-3, 6 ch, 640 kbps (Eng)
Субтитры: Русские (форс,полные), Английские
Скачать: сэмпл

Общее
Уникальный идентификатор : 187845957665554740666410008374531376072 (0x8D51D0C34C6BACC69EFEF1A31188C3C8)
Полное имя : Trance.2013.BDRip.1080p.Rus.Eng.mkv
Формат : Matroska
Версия формата : Version 2
Размер файла : 7,76 Гбайт
Продолжительность : 1 ч. 41 м.
Общий поток : 11,0 Мбит/сек
Название фильма : Транс / Trance (2013)
Дата кодирования : UTC 2013-08-16 15:27:45
Программа кодирования : mkvmerge v5.8.0 ('No Sleep / Pillow') built on Sep 2 2012 15:37:04
Библиотека кодирования : libebml v1.2.3 + libmatroska v1.3.0

Видео
Идентификатор : 1
Формат : AVC
Формат/Информация : Advanced Video Codec
Профиль формата : High@L4.1
Параметр CABAC формата : Да
Параметр ReFrames формата : 5 кадров
Идентификатор кодека : V_MPEG4/ISO/AVC
Продолжительность : 1 ч. 41 м.
Битрейт : 9685 Кбит/сек
Ширина : 1920 пикселей
Высота : 800 пикселей
Соотношение сторон : 2,40:1
Частота кадров : 23,976 кадра/сек
Цветовое пространство : YUV
Субдискретизация насыщенности : 4:2:0
Битовая глубина : 8 бит
Тип развёртки : Прогрессивная
Бит/(Пиксели*Кадры) : 0.263
Размер потока : 6,70 Гбайт (86%)
Заголовок : Release by AlexKa
Библиотека кодирования : x264 core 135 r2345 f0c1c53
Настройки программы : cabac=1 / ref=5 / deblock=1:-3:-3 / analyse=0x3:0x133 / me=umh / subme=11 / psy=1 / psy_rd=1.00:0.00 / mixed_ref=1 / me_range=32 / chroma_me=1 / trellis=2 / 8x8dct=1 / cqm=0 / deadzone=21,11 / fast_pskip=0 / chroma_qp_offset=-2 / threads=12 / lookahead_threads=1 / sliced_threads=0 / nr=0 / decimate=0 / interlaced=0 / bluray_compat=0 / constrained_intra=0 / bframes=6 / b_pyramid=2 / b_adapt=2 / b_bias=0 / direct=3 / weightb=1 / open_gop=0 / weightp=2 / keyint=240 / keyint_min=23 / scenecut=40 / intra_refresh=0 / rc_lookahead=60 / rc=2pass / mbtree=0 / bitrate=9685 / ratetol=1.0 / qcomp=0.60 / qpmin=0 / qpmax=69 / qpstep=4 / cplxblur=20.0 / qblur=0.5 / vbv_maxrate=50000 / vbv_bufsize=62500 / nal_hrd=none / ip_ratio=1.40 / pb_ratio=1.30 / aq=1:0.90
Язык : English

Аудио #1
Идентификатор : 2
Формат : AC-3
Формат/Информация : Audio Coding 3
Расширение режима : CM (complete main)
Идентификатор кодека : A_AC3
Продолжительность : 1 ч. 41 м.
Вид битрейта : Постоянный
Битрейт : 640 Кбит/сек
Каналы : 6 каналов
Расположение каналов : Front: L C R, Side: L R, LFE
Частота : 48,0 КГц
Битовая глубина : 16 бит
Метод сжатия : С потерями
Размер потока : 464 Мбайт (6%)
Заголовок : Rus
Язык : Russian

Аудио #2
Идентификатор : 3
Формат : AC-3
Формат/Информация : Audio Coding 3
Расширение режима : CM (complete main)
Идентификатор кодека : A_AC3
Продолжительность : 1 ч. 41 м.
Вид битрейта : Постоянный
Битрейт : 640 Кбит/сек
Каналы : 6 каналов
Расположение каналов : Front: L C R, Side: L R, LFE
Частота : 48,0 КГц
Битовая глубина : 16 бит
Метод сжатия : С потерями
Размер потока : 464 Мбайт (6%)
Заголовок : Eng
Язык : English

Текст #1
Идентификатор : 4
Формат : UTF-8
Идентификатор кодека : S_TEXT/UTF8
Идентификатор кодека/Информация : UTF-8 Plain Text
Заголовок : Rus forced
Язык : Russian

Текст #2
Идентификатор : 5
Формат : UTF-8
Идентификатор кодека : S_TEXT/UTF8
Идентификатор кодека/Информация : UTF-8 Plain Text
Заголовок : Rus
Язык : Russian

Текст #3
Идентификатор : 6
Формат : UTF-8
Идентификатор кодека : S_TEXT/UTF8
Идентификатор кодека/Информация : UTF-8 Plain Text
Заголовок : Eng
Язык : English

Меню
00:00:00.000 : :Chapter 01
00:04:05.870 : :Chapter 02
00:08:18.831 : :Chapter 03
00:10:09.859 : :Chapter 04
00:13:06.785 : :Chapter 05
00:15:42.650 : :Chapter 06
00:17:33.677 : :Chapter 07
00:21:57.274 : :Chapter 08
00:23:46.633 : :Chapter 09
00:25:54.719 : :Chapter 10
00:28:11.398 : :Chapter 11
00:31:08.533 : :Chapter 12
00:33:40.643 : :Chapter 13
00:36:31.272 : :Chapter 14
00:39:10.723 : :Chapter 15
00:41:49.340 : :Chapter 16
00:45:58.881 : :Chapter 17
00:51:51.483 : :Chapter 18
00:59:00.286 : :Chapter 19
01:02:10.893 : :Chapter 20
01:08:08.584 : :Chapter 21
01:12:06.822 : :Chapter 22
01:14:36.138 : :Chapter 23
01:16:13.151 : :Chapter 24
01:25:36.548 : :Chapter 25
01:28:16.290 : :Chapter 26
01:31:34.780 : :Chapter 27
01:35:32.768 : :Chapter 28
01:41:18.864 : :Chapter 29
x264 [info]: frame I:1327 Avg QP:13.66 size:213259
x264 [info]: frame P:32532 Avg QP:16.22 size: 90517
x264 [info]: frame B:111893 Avg QP:18.01 size: 36922


_________________
Проголосуй за трекер Открытый торрент трекер - RUS-MEDIA.ORG

Проголосуй Открытый торрент трекер - RUS-MEDIA.ORG


Вернуться к началу
 Профиль Отправить личное сообщение  
 
   Похожие торренты   Автор   Торрент   Размер 
В этой теме нет новых непрочитанных сообщений. Транс-Пекос / Transpecos [триллер, 2016] BDRip 1080p, Mvo

salma3

314 | 174

6.12 ГБ

В этой теме нет новых непрочитанных сообщений. Пленницы / Prisoners [триллер, драма, криминал, 2013] BDRip 1080p, Dub

salma3

0 | 1

13.87 ГБ

В этой теме нет новых непрочитанных сообщений. Малолетка / Jailbait [Триллер, криминал, драма, 2013] BDRip 1080p, Avo

salma3

0 | 0

6.33 ГБ

В этой теме нет новых непрочитанных сообщений. Во все тяжкие / Breaking Bad [S01-05] [Триллер, Драма, Криминал, 2008-2013] BDRip-HEVC 1080p, Dub

salma3

18 | 41

65.18 ГБ

В этой теме нет новых непрочитанных сообщений. Взгляд зимы / Cold Comes the Night [триллер, драма, криминал, 2013] BDRip 1080p, Mvo [iTunes]

salma3

0 | 0

8.41 ГБ

В этой теме нет новых непрочитанных сообщений. Во все тяжкие / Breaking Bad [S01-05] [триллер, драма, криминал, 2008-2013] BDRip 1080p, Dvo [Кубик в Кубе]

salma3

12 | 41

253.45 ГБ

В этой теме нет новых непрочитанных сообщений. Транс-Пекос / Transpecos [триллер, 2016] BDRip 720p, Mvo

salma3

346 | 158

3.36 ГБ


Начать новую тему Ответить на тему  [ 1 сообщение ] 




Для Мосгорсуда, Роскомнадзора и рекламодателей:: mosgorsud-torrent[собачка]yandex.ru
cron