Торрент файл
скачать торрент магнет ссылка Добавлен: 14 окт 2017, 21:10
Размер: 4.11 ГБ
Сидеров: 47
Личеров: 2
Статус: (salma3)
Автор

СообщениеДобавлено: 14 окт 2017, 21:10 

Не в сети
Супермодератор
Аватара пользователя
Дата регистрации:
15 фев 2012, 16:44
Возраст: 28
Спасибо: 7290 / 2147
Сообщения: 70395
Год выхода: 2017
Категория: драма, мелодрама, музыка
Режиссер: Терренс Малик

В главных ролях: Натали Портман, Майкл Фассбендер, Райан Гослинг, Руни Мара, Кейт Бланшетт, Холли Хантер, Беренис Марло, Вэл Килмер, Люкке Ли, Оливия Грэйс Эпплгейт

О фильме:
История четверых молодых и полных энергии людей, заигравшихся в запутанные отношения во время техасского рок-фестиваля в Остине. Биви и Фэй — талантливые композиторы и рок-исполнители, а Кук — состоятельный медиа-магнат, завлекший в свои сети очаровательную официантку из местного кафе. В погоне за успехом и настоящей любовью каждый из них проходит сквозь соблазны и предательства — и всё под ритмы рок-н-ролла.



Произведено: США
Продолжительность: 02:09:39
Перевод: Любительский [многоголосый] [GreenРай Studio]

Файл
Качество: BDRip 720p
Видео данные: MKV, 1280x536 (2.40:1), 23.976 fps, 4000 Кбит/с
Аудио данные: Русский (AC3, 2 ch, 640 Кбит/с)

Присутствует реклама!

General
Unique ID : 190449074521917783282780108114012693128 (0x8F47285536BD2B12AE5DCD92FAA86288)
Complete name : D:Рабочий столSong.To.Song.2017.P.BDRip.720p.mkv
Format : Matroska
Format version : Version 4 / Version 2
File size : 4.11 GiB
Duration : 2 h 9 min
Overall bit rate mode : Constant
Overall bit rate : 4 541 kb/s
Encoded date : UTC 2017-10-14 14:29:28
Writing application : mkvmerge v8.3.0 ('Over the Horizon') 64bit
Writing library : libebml v1.3.1 + libmatroska v1.4.2

Video
ID : 1
Format : AVC
Format/Info : Advanced Video Codec
Format profile : Main@L3.1
Format settings, CABAC : Yes
Format settings, ReFrames : 3 frames
Codec ID : V_MPEG4/ISO/AVC
Duration : 2 h 9 min
Bit rate mode : Constant
Bit rate : 4 000 kb/s
Width : 1 280 pixels
Height : 536 pixels
Display aspect ratio : 2.40:1
Frame rate mode : Constant
Frame rate : 23.976 (23976/1000) FPS
Standard : NTSC
Color space : YUV
Chroma subsampling : 4:2:0
Bit depth : 8 bits
Scan type : Progressive
Bits/(Pixel*Frame) : 0.243
Stream size : 3.53 GiB (86%)
Language : English
Default : Yes
Forced : No
Color range : Limited

Audio
ID : 2
Format : AC-3
Format/Info : Audio Coding 3
Mode extension : CM (complete main)
Format settings, Endianness : Big
Codec ID : A_AC3
Duration : 2 h 9 min
Bit rate mode : Constant
Bit rate : 640 kb/s
Channel(s) : 2 channels
Channel positions : Front: L R
Sampling rate : 48.0 kHz
Frame rate : 31.250 FPS (1536 spf)
Compression mode : Lossy
Stream size : 593 MiB (14%)
Default : Yes
Forced : No


Релиз от:


_________________
Проголосуй за трекер Открытый торрент трекер - RUS-MEDIA.ORG

Проголосуй Открытый торрент трекер - RUS-MEDIA.ORG


Вернуться к началу
 Профиль Отправить личное сообщение  
 
   Похожие торренты   Автор   Торрент   Размер 
В этой теме нет новых непрочитанных сообщений. Песня за песней / Song to Song (Терренс Малик / Terrence Malick) [2017г., драма, мелодрама, музыка, HDRip] mvo

Alfredovich

450 | 168

2.05 ГБ

В этой теме нет новых непрочитанных сообщений. Девушка из песни / The Girl from the Song [драма, мелодрама, музыка, 2017] HDRip, Dvo

salma3

140 | 39

1.37 ГБ

В этой теме нет новых непрочитанных сообщений. Saya Song's Anal Initiation (Jonni Darkko, Evil Angel) [2017 г., Gonzo, IR, Blowbang, Gangbang, Anal, DP, DAP, 540p, WEB-DL] (Split Scenes) (Saya Song) RD: 04.09.2017.

salma3

21 | 7

4.16 ГБ

В этой теме нет новых непрочитанных сообщений. Песня тишины / Yang mei zhou / Song of Silence (Чень Чжо / Chen Zhuo) [2012г., Китай, драма, DVB] DVO

Alfredovich

6 | 2

1.08 ГБ

В этой теме нет новых непрочитанных сообщений. Saya Song's Anal Initiation / Анальное Посвящение Saya Song (Jonni Darkko, Evil Angel) [2017 г., Gonzo, Asian, First Anal, First Double Penetration, IR, Blowbang, Gangbang, Anal, DP, DAP, DVDRip]

salma3

9 | 3

2.73 ГБ

В этой теме нет новых непрочитанных сообщений. Песня сирен / Siren Song [ужасы, детектив, 2016] HDRip, Avo

salma3

860 | 186

1.36 ГБ

В этой теме нет новых непрочитанных сообщений. Песнь тьмы / A Dark Song [ужасы, драма, 2016] WEB-DLRip 720p, Mvo

salma3

846 | 85

3.16 ГБ


Начать новую тему Ответить на тему  [ 1 сообщение ] 




Для Мосгорсуда, Роскомнадзора и рекламодателей:: mosgorsud-torrent[собачка]yandex.ru
cron