Торрент файл
скачать торрент магнет ссылка Добавлен: 14 окт 2017, 16:15
Размер: 4.88 ГБ
Сидеров: 71
Личеров: 34
Статус: (salma3)
Автор

СообщениеДобавлено: 14 окт 2017, 16:15 

Не в сети
Супермодератор
Аватара пользователя
Дата регистрации:
15 фев 2012, 16:44
Возраст: 29
Спасибо: 7377 / 2147
Сообщения: 75752
Год выхода: 2011
Жанр: фантастика, боевик
Режиссер: В.Д. Хоган

В ролях: Роберт Неппер, Джулия Андерсон, Камерон Брайт, Джулия Максвелл, Майкл Копса, Роурк Критчлоу, Брюс Дэвисон, Алекс Захара, Дэвид Ричмонд-Пек, Гардинер Миллар

О фильме:
На Землю падает небольшой плотный шар, который насквозь пробивает планету, в результате чего начинают меняться магнитные полюса. Правительственная экспертная группа, во главе с Хлоей Эдвардс, пытается остановить катастрофу и восстановить магнитные поля, чтобы Земля вновь смогла вращаться вокруг своей оси…



Страна: Канада
Продолжительность: 01:30:57
Перевод: профессиональный многоголосный, закадровый (R5), профессиональный двухголосный, закадровый (SDI Media), дублированный (ТВ-3)

Файл
Кодек: H.264
Качество: BDRip 720p
Видео: MPEG-4 / AVC, 1280x720p (16:9), 23.976 fps ~ 5345 Kbps
Звук:
AC3, 48 KHz, 6 ch ~ 448 Kb/s (R5)
AC3, 48 KHz, 2 ch ~ 192 Kb/s (SDI Media)
AC3, 48 KHz, 2 ch ~ 192 Kb/s (дублированный)
DTS, 48 KHz, 6 ch ~ 1510 Kbps (английский)
Субтитры: русские

Общее
Уникальный идентификатор : 211843008121083528817311015236190967614 (0x9F5F7AB26B11E3C2ABB9CF6EDC09973E)
Полное имя : Q:TorFEarth's Final Hours 2011 720p BluRay DTS x264-DNL.mkv
Формат : Matroska
Версия формата : Version 4 / Version 2
Размер файла : 4,88 Гбайт
Продолжительность : 1 ч. 30 м.
Режим общего битрейта : Переменный
Общий поток : 7686 Кбит/сек
Название фильма : Armagedon
Дата кодирования : UTC 2013-04-13 09:40:06
Программа кодирования : mkvmerge v6.0.0 ('Coming Up For Air') built on Jan 20 2013 09:52:00
Библиотека кодирования : libebml v1.3.0 + libmatroska v1.4.0

Видео
Идентификатор : 1
Формат : AVC
Формат/Информация : Advanced Video Codec
Профиль формата : High@L4.1
Параметр CABAC формата : Да
Параметр ReFrames формата : 8 кадров
Идентификатор кодека : V_MPEG4/ISO/AVC
Продолжительность : 1 ч. 30 м.
Вид битрейта : Переменный
Битрейт : 5345 Кбит/сек
Максимальный битрейт : 25,0 Мбит/сек
Ширина : 1280 пикселей
Высота : 720 пикселей
Соотношение сторон : 16:9
Частота кадров : 23,976 кадра/сек
Цветовое пространство : YUV
Субдискретизация насыщенности : 4:2:0
Битовая глубина : 8 бит
Тип развёртки : Прогрессивная
Бит/(Пиксели*Кадры) : 0.242
Размер потока : 3,30 Гбайт (68%)
Заголовок : Последние часы Земли / Последний час Земли / Earth's Final Hours (2011)
Библиотека кодирования : x264 core 112 r1867 22bfd31
Настройки программы : cabac=1 / ref=8 / deblock=1:0:0 / analyse=0x3:0x133 / me=umh / subme=7 / psy=1 / psy_rd=1.00:0.00 / mixed_ref=1 / me_range=16 / chroma_me=1 / trellis=1 / 8x8dct=1 / cqm=0 / deadzone=21,11 / fast_pskip=1 / chroma_qp_offset=-2 / threads=12 / sliced_threads=0 / nr=0 / decimate=1 / interlaced=0 / constrained_intra=0 / bframes=3 / b_pyramid=0 / b_adapt=1 / b_bias=0 / direct=1 / weightb=1 / open_gop=0 / weightp=2 / keyint=240 / keyint_min=24 / scenecut=40 / intra_refresh=0 / rc_lookahead=40 / rc=2pass / mbtree=1 / bitrate=5345 / ratetol=1.0 / qcomp=0.60 / qpmin=0 / qpmax=51 / qpstep=4 / cplxblur=20.0 / qblur=0.5 / vbv_maxrate=25000 / vbv_bufsize=25000 / nal_hrd=vbr / ip_ratio=1.40 / aq=1:1.00
Язык : English
Default : Да
Forced : Нет

Аудио #1
Идентификатор : 2
Формат : AC-3
Формат/Информация : Audio Coding 3
Расширение режима : CM (complete main)
Идентификатор кодека : A_AC3
Продолжительность : 1 ч. 30 м.
Вид битрейта : Постоянный
Битрейт : 448 Кбит/сек
Каналы : 6 каналов
Расположение каналов : Front: L C R, Side: L R, LFE
Частота : 48,0 КГц
Битовая глубина : 16 бит
Метод сжатия : С потерями
Размер потока : 291 Мбайт (6%)
Заголовок : Профессиональный (многоголосый, закадровый) R5
Язык : Russian
Default : Да
Forced : Нет

Аудио #2
Идентификатор : 3
Формат : AC-3
Формат/Информация : Audio Coding 3
Расширение режима : CM (complete main)
Идентификатор кодека : A_AC3
Продолжительность : 1 ч. 30 м.
Вид битрейта : Постоянный
Битрейт : 192 Кбит/сек
Каналы : 2 канала
Расположение каналов : Front: L R
Частота : 48,0 КГц
Битовая глубина : 16 бит
Метод сжатия : С потерями
Размер потока : 125 Мбайт (2%)
Заголовок : Профессиональный (двухголосый, закадровый) SDI Media
Язык : Russian
Default : Нет
Forced : Нет

Аудио #3
Идентификатор : 4
Формат : AC-3
Формат/Информация : Audio Coding 3
Расширение режима : CM (complete main)
Идентификатор кодека : A_AC3
Продолжительность : 1 ч. 30 м.
Вид битрейта : Постоянный
Битрейт : 192 Кбит/сек
Каналы : 2 канала
Расположение каналов : Front: L R
Частота : 48,0 КГц
Битовая глубина : 16 бит
Метод сжатия : С потерями
Размер потока : 125 Мбайт (2%)
Заголовок : Профессиональный (полное дублирование) ТВ3
Язык : Russian
Default : Нет
Forced : Нет

Аудио #4
Идентификатор : 5
Формат : DTS
Формат/Информация : Digital Theater Systems
Идентификатор кодека : A_DTS
Продолжительность : 1 ч. 30 м.
Вид битрейта : Постоянный
Битрейт : 1510 Кбит/сек
Каналы : 6 каналов
Расположение каналов : Front: L C R, Side: L R, LFE
Частота : 48,0 КГц
Битовая глубина : 24 бит
Метод сжатия : С потерями
Размер потока : 982 Мбайт (20%)
Язык : English
Default : Нет
Forced : Нет

Текст
Идентификатор : 6
Формат : UTF-8
Идентификатор кодека : S_TEXT/UTF8
Идентификатор кодека/Информация : UTF-8 Plain Text
Язык : Russian
Default : Да
Forced : Нет


_________________
Проголосуй за трекер Открытый торрент трекер - RUS-MEDIA.ORG

Проголосуй Открытый торрент трекер - RUS-MEDIA.ORG


Вернуться к началу
 Профиль Отправить личное сообщение  
 
   Похожие торренты   Автор   Торрент   Размер 
В этой теме нет новых непрочитанных сообщений. Нацисты в центре Земли / Nazis at the Center of the Earth [фантастика, боевик, триллер, приключения, 2012] BDRip 720p, Mvo

salma3

50 | 6

3.93 ГБ

В этой теме нет новых непрочитанных сообщений. Нацисты в центре Земли / Nazis at the Center of the Earth [фантастика, боевик, триллер, приключения, 2012] BDRip-AVC, Mvo

salma3

98 | 14

1.45 ГБ

В этой теме нет новых непрочитанных сообщений. Человек с Земли / The Man from Earth [Фантастика, драма, 2007] BDRip 1080p, Mvo

salma3

0 | 8

8.28 ГБ

В этой теме нет новых непрочитанных сообщений. Голый пистолет 33 1/3: Последний выпад / Naked Gun 33 1/3: The Final Insult [Боевик, комедия, криминал, 1994] BDRip 720p, Mvo

salma3

14 | 1

4.8 ГБ

В этой теме нет новых непрочитанных сообщений. Нацисты в центре Земли / Nazis at the Center of the Earth [фантастика, боевик, триллер, приключения, 2012] BDRemux 1080p, Mvo

salma3

116 | 41

10.89 ГБ

В этой теме нет новых непрочитанных сообщений. Последний человек на Земле / The Last Man on Earth [02x01-10] (Фил Лорд, Кристофер Миллер) [2015, Фантастика, комедия, драма, HDTVRip 720p | Jaskier]

Dracon

70 | 210

6.82 ГБ

В этой теме нет новых непрочитанных сообщений. Выжженная земля / Scorched Earth [Фантастика, боевик, 2018] BDRip 720p, Mvo [Jaskier]

salma3

0 | 0

4.78 ГБ


Начать новую тему Ответить на тему  [ 1 сообщение ] 




Для Мосгорсуда, Роскомнадзора и рекламодателей:: mosgorsud-torrent[собачка]yandex.ru
cron