Торрент файл
скачать торрент магнет ссылка Добавлен: 14 окт 2017, 12:22
Размер: 33.41 ГБ
Сидеров: 0
Личеров: 19
Статус: (salma3)
Автор

СообщениеДобавлено: 14 окт 2017, 12:22 

В сети
Супермодератор
Аватара пользователя
Дата регистрации:
15 фев 2012, 16:44
Возраст: 28
Спасибо: 6642 / 2146
Сообщения: 45746
Год выхода: 2013
Жанр: Боевик, триллер
Режиссер: Антуан Фукуа

В ролях: Джерард Батлер, Аарон Экхарт, Морган Фримен, Рик Юн, Финли Якобсен, Анджела Бассетт, Рада Митчелл, Роберт Форстер, Дилан МакДермотт, Эшли Джадд, Мелисса Лео, Коул Хаузер, Фил Остин, Джеймс Ингерсолл, Фредди Бош, Лэнс Бродвэй, Шон О’Брайан, Кеонг Сим, Кевин Мун, Малана Леа, Сэм Медина, Майк Снайдер, Джозиа Д. Ли, Эдрик Браун, Шон Бойд

О фильме:
Визит корейского премьер-министра обернулся в террористическое нападение на Белый дом, и все Соединенные штаты с ужасом наблюдают безуспешные попытки властей справиться с ситуацией. Лишь бывший спецагент находит единственную возможность обуздать зарвавшихся экстремистов. И кажется , что всё под контролем у террористов, но знания и опыт Майка Бэннинга помогают ему справиться с возникшей нелегкой ситуацией.



Страна: США
Студия: Millennium Films, Nu-Image Films, West Coast Film Partners
Продолжительность: 01:59:09
Перевод: Дублированный, авторский

Файл
Кодек: MPEG-4 AVC
Качество: BDRemux
Видео: 31995 Кбит/с, 1920x1080, 23.976 кадр/с
Аудио 1: Русский / DTS-HD Master Audio / 5.1 / 48 kHz / 2089 kbps / 16-bit (DTS Core: 5.1 / 48 kHz / 1509 kbps / 16-bit) - Дубляж
Аудио 2: Английский / DTS-HD Master Audio / 5.1 / 48 kHz / 3850 kbps / 24-bit (DTS Core: 5.1 / 48 kHz / 1509 kbps / 24-bit) - Оригинал
Аудио 3: Русский / DTS / 5.1 / 48 kHz / 1536 kbps / 24-bit - Авторский (Гаврилов)
Аудио 4: Русский / AC3 / 5.1 / 48 kHz / 640 kbps / 16-bit - Авторский (Гаврилов)
Субтитры: Русские, английские
Главы: есть


Общее
Уникальный идентификатор : 211989688557308257148452991638513690184 (0x9F7BBA99CE2FCE479DB034C88444A648)
Полное имя : D:\РЕМУКС. НР\Падение Олимпа. BDRemux..mkv
Формат : Matroska
Версия формата : Version 2
Размер файла : 33,4 Гбайт
Продолжительность : 1 ч. 59 м.
Режим общего битрейта : Переменный
Общий поток : 40,1 Мбит/сек
Название фильма : GORESEWAGE
Дата кодирования : UTC 2015-06-22 09:01:39
Программа кодирования : mkvmerge v5.0.1 ('Es ist Sommer') built on Oct 9 2011 11:55:43
Библиотека кодирования : libebml v1.2.2 + libmatroska v1.3.0

Видео
Идентификатор : 1
Формат : AVC
Формат/Информация : Advanced Video Codec
Профиль формата : High@L4.1
Параметр CABAC формата : Да
Параметр ReFrames формата : 4 кадра
Идентификатор кодека : V_MPEG4/ISO/AVC
Продолжительность : 1 ч. 59 м.
Вид битрейта : Переменный
Максимальный битрейт : 35,0 Мбит/сек
Ширина : 1920 пикселей
Высота : 1080 пикселей
Соотношение сторон : 16:9
Режим частоты кадров : Постоянный
Частота кадров : 24,000 кадра/сек
Стандарт вещания : NTSC
Цветовое пространство : YUV
Субдискретизация насыщенности : 4:2:0
Битовая глубина : 8 бит
Тип развёртки : Прогрессивная
Язык : English
Default : Да
Forced : Нет
Основные цвета : BT.709
Характеристики трансфера : BT.709
Коэффициенты матрицы : BT.709

Аудио #1
Идентификатор : 2
Формат : DTS
Формат/Информация : Digital Theater Systems
Профиль формата : MA / Core
Режим : 16
Параметр Endianness формата : Big
Идентификатор кодека : A_DTS
Продолжительность : 1 ч. 59 м.
Вид битрейта : Переменный
Битрейт : Неизвестно / 1509 Кбит/сек
Каналы : 6 каналов
Расположение каналов : Front: L C R, Side: L R, LFE
Частота : 48,0 КГц
Битовая глубина : 16 бит
Метод сжатия : Без потерь / Lossy
Заголовок : DTS-HD M A / 2089 kbps - Дубляж
Язык : Russian
Default : Да
Forced : Нет

Аудио #2
Идентификатор : 3
Формат : DTS
Формат/Информация : Digital Theater Systems
Профиль формата : MA / Core
Режим : 16
Параметр Endianness формата : Big
Идентификатор кодека : A_DTS
Продолжительность : 1 ч. 59 м.
Вид битрейта : Переменный
Битрейт : Неизвестно / 1509 Кбит/сек
Каналы : 6 каналов
Расположение каналов : Front: L C R, Side: L R, LFE
Частота : 48,0 КГц
Битовая глубина : 24 бит
Метод сжатия : Без потерь / Lossy
Заголовок : DTS-HD M A/ 3850 kbps - Оригинал
Язык : English
Default : Нет
Forced : Нет

Аудио #3
Идентификатор : 4
Формат : DTS
Формат/Информация : Digital Theater Systems
Режим : 16
Параметр Endianness формата : Big
Идентификатор кодека : A_DTS
Продолжительность : 1 ч. 59 м.
Вид битрейта : Постоянный
Битрейт : 1509 Кбит/сек
Каналы : 6 каналов
Расположение каналов : Front: L C R, Side: L R, LFE
Частота : 48,0 КГц
Битовая глубина : 24 бит
Метод сжатия : С потерями
Размер потока : 1,26 Гбайт (4%)
Заголовок : DTS / 1536 kbps - Гаврилов
Язык : Russian
Default : Нет
Forced : Нет

Аудио #4
Идентификатор : 5
Формат : AC-3
Формат/Информация : Audio Coding 3
Расширение режима : CM (complete main)
Параметр Endianness формата : Big
Идентификатор кодека : A_AC3
Продолжительность : 1 ч. 59 м.
Вид битрейта : Постоянный
Битрейт : 640 Кбит/сек
Каналы : 6 каналов
Расположение каналов : Front: L C R, Side: L R, LFE
Частота : 48,0 КГц
Битовая глубина : 16 бит
Метод сжатия : С потерями
Размер потока : 545 Мбайт (2%)
Заголовок : АСЗ 640 -АП Гаврилов
Язык : Russian
Default : Нет
Forced : Нет

Текст #1
Идентификатор : 6
Формат : UTF-8
Идентификатор кодека : S_TEXT/UTF8
Идентификатор кодека/Информация : UTF-8 Plain Text
Заголовок : Full Voronine
Язык : Russian
Default : Нет
Forced : Нет

Текст #2
Идентификатор : 7
Формат : UTF-8
Идентификатор кодека : S_TEXT/UTF8
Идентификатор кодека/Информация : UTF-8 Plain Text
Заголовок : Full
Язык : English
Default : Нет
Forced : Нет

Меню
00:00:00.000 : en:00:00:00.000
00:09:19.542 : en:00:09:19.542
00:17:49.750 : en:00:17:49.750
00:27:52.417 : en:00:27:52.417
00:38:11.708 : en:00:38:11.708
00:46:51.833 : en:00:46:51.833
00:57:37.000 : en:00:57:37.000
01:07:31.708 : en:01:07:31.708
01:19:48.875 : en:01:19:48.875
01:28:46.208 : en:01:28:46.208
01:38:14.125 : en:01:38:14.125
01:50:14.625 : en:01:50:14.625



_________________
Проголосуй за трекер Открытый торрент трекер - RUS-MEDIA.ORG

Проголосуй Открытый торрент трекер - RUS-MEDIA.ORG



реклама партнёра


Вернуться к началу
 Профиль Отправить личное сообщение  
 
   Похожие торренты   Автор   Торрент   Размер 
В этой теме нет новых непрочитанных сообщений. Падение Лондона / London Has Fallen [боевик, триллер, драма, криминал, 2016] Blu-ray 1080p, Dub

salma3

36 | 14

36.1 ГБ

В этой теме нет новых непрочитанных сообщений. Падение Лондона / London Has Fallen [боевик, триллер, драма, криминал, 2016] Blu-ray 1080p, Dub [лицензия]

salma3

16 | 8

17.24 ГБ

В этой теме нет новых непрочитанных сообщений. Падение Лондона / London Has Fallen [боевик, триллер, драма, криминал, 2016] BDRip 1080p, Dub [iTunes]

salma3

58 | 6

12.09 ГБ

В этой теме нет новых непрочитанных сообщений. Падение Лондона / London Has Fallen [боевик, триллер, драма, криминал, 2016] BD Remux 1080p, Dub [iTunes]

salma3

17 | 9

28.15 ГБ

В этой теме нет новых непрочитанных сообщений. Падение Лондона / London Has Fallen [боевик, триллер, криминал, 2016] WEB-DLRip, Dub [iTunes]

salma3

1219 | 287

1.37 ГБ

В этой теме нет новых непрочитанных сообщений. Падение Лондона / London Has Fallen [боевик, триллер, драма, криминал, 2016] BDRip 720p, Dub [лицензия]

salma3

254 | 28

4.75 ГБ

В этой теме нет новых непрочитанных сообщений. Смертельное падение / Dead Drop [боевик, триллер, драма, 2013] HDRip, Mvo

salma3

1505 | 71

1.37 ГБ


Начать новую тему Ответить на тему  [ 1 сообщение ] 




Для Мосгорсуда, Роскомнадзора и рекламодателей:: mosgorsud-torrent[собачка]yandex.ru