Торрент файл
скачать торрент магнет ссылка Добавлен: 14 окт 2017, 11:20
Размер: 12.98 ГБ
Сидеров: 53
Личеров: 34
Статус: (salma3)
Автор

СообщениеДобавлено: 14 окт 2017, 11:20 

Не в сети
Супермодератор
Аватара пользователя
Дата регистрации:
15 фев 2012, 16:44
Возраст: 28
Спасибо: 6665 / 2146
Сообщения: 46082
Год выхода: 1969
Жанр: Триллер, драма, криминал
Режиссер: Рене Клеман

В ролях: Чарльз Бронсон, Марлен Жобер, Анни Корди, Джилл Айрленд, Жан Гавен, Коринн Маршан, Эллен Баль, Габриэле Тинти, Жан Пиа, Стив Экхард

О фильме:
Юная и немного инфантильная Мели становится жертвой жестокого преступника, который проникает к ней в дом и насилует ее. Очнувшись, она обнаруживает, что он все еще находится в ее доме. Девушка убивает негодяя, уничтожает все следы его присутствия и избавляется от трупа. Однако, возврата к прежней сонной жизни уже не будет — в городке появляется загадочный американец Гарри Добс, который разыскивает убитого и особенно интересуется судьбой бывшей при нем сумки. Ушлый незнакомец убежден, что Мели и ее муж причастны к исчезновению и сумки и ее владельца, и полон решимости добиться от нее признания, используя свои необычные методы.



Страна: Франция, Италия
Продолжительность: 01:59:37
Перевод: Профессиональный [двухголосый], авторский

Файл
Кодек: h.264
Качество: BDRip 1080p
Видео: MPEG-4 AVC, 13000 Кбит/с, 1920x1040, 23,976 кадр/с
Звук:
Русский (AC3, 2 ch, 192 Кбит/с) / Профессиональный двухголосый
Русский (AC3, 2 ch, 192 Кбит/с) / Авторский (А. Михалев)
Русский (AC3, 2 ch, 192 Кбит/с) / Авторский (А. Гаврилов
Русский (DTS, 2 ch, 1509 Кбит/с) / Авторский (А. Матвеев)
Французский (AC3, 2 ch, 448 Кбит/с)
Субтитры: Русские

Семпл

За источник спасибо pirs18
Сохранены оригинальные главы как на Blu-ray
Исходный диск приобретен в рамках сервиса "Копилка: Помоги с Blu-ray". Благодарим: serg62, andrei38, gelom, Juve, Pletka, baranovna, hdcursus, arka, krakhoolik, dansid, fulstoff, Luka69, barcares, viryzhkov, budulaj, BillKlinton, p0stm4n, irrlicht, tomian, malyaka, uwds, mute404, igorsudakov.
Перевод А.Матвеева доступен благодаря budulaj
General
Unique ID : 246474022829382222432569746953700964800 (0xB96D2B8C33D150688B80126E80B4F9C0)
Complete name : D:uTorrentPassazhir.dozhdja.1969.BDRip.1080p.MediaClub.mkv
Format : Matroska
Format version : Version 4 / Version 2
File size : 13.0 GiB
Duration : 1 h 59 min
Overall bit rate : 15.5 Mb/s
Encoded date : UTC 2017-10-13 21:01:13 / UTC 2017-10-01T02:25:57Z
Writing application : mkvmerge v16.0.0 ('Protest') 64-bit
Writing library : libebml v1.3.5 + libmatroska v1.4.8 / Lavf57.7.2

Video
ID : 1
Format : AVC
Format/Info : Advanced Video Codec
Format profile : High@L4.1
Format settings, CABAC : Yes
Format settings, ReFrames : 4 frames
Codec ID : V_MPEG4/ISO/AVC
Duration : 1 h 59 min
Bit rate : 13.0 Mb/s
Width : 1 920 pixels
Height : 1 040 pixels
Display aspect ratio : 1.85:1
Frame rate mode : Constant
Frame rate : 23.976 (24000/1001) FPS
Color space : YUV
Chroma subsampling : 4:2:0
Bit depth : 8 bits
Scan type : Progressive
Bits/(Pixel*Frame) : 0.272
Stream size : 10.6 GiB (82%)
Title : BDRip by Silverok
Writing library : x264 core 148 r2708 86b7198
Encoding settings : cabac=1 / ref=4 / deblock=1:-3:-3 / analyse=0x3:0x113 / me=umh / subme=11 / psy=1 / psy_rd=1.00:0.10 / mixed_ref=1 / me_range=32 / chroma_me=1 / trellis=2 / 8x8dct=1 / cqm=0 / deadzone=21,11 / fast_pskip=1 / chroma_qp_offset=-3 / threads=12 / lookahead_threads=1 / sliced_threads=0 / nr=0 / decimate=0 / interlaced=0 / bluray_compat=0 / constrained_intra=0 / bframes=16 / b_pyramid=2 / b_adapt=1 / b_bias=0 / direct=1 / weightb=1 / open_gop=0 / weightp=2 / keyint=240 / keyint_min=24 / scenecut=40 / intra_refresh=0 / rc_lookahead=40 / rc=2pass / mbtree=1 / bitrate=13000 / ratetol=1.0 / qcomp=0.60 / qpmin=0 / qpmax=69 / qpstep=4 / cplxblur=20.0 / qblur=0.5 / vbv_maxrate=62500 / vbv_bufsize=78125 / nal_hrd=none / filler=0 / ip_ratio=1.40 / aq=1:1.00
Default : Yes
Forced : No
Color range : Limited
Color primaries : BT.709
Transfer characteristics : BT.709
Matrix coefficients : BT.709
Statistics Tags Issue : mkvmerge v16.0.0 ('Protest') 64-bit 2017-10-13 21:01:13 / mkvmerge v16.0.0 ('Protest') 64-bit 2017-10-13 21:01:13 / UTC 2017-10-01T02:25:57Z
FromStats_BitRate : 12998624
FromStats_Duration : 01:59:37.170000000
FromStats_FrameCount : 172079
FromStats_StreamSize : 11661667173

Audio #1
ID : 2
Format : AC-3
Format/Info : Audio Coding 3
Format settings, Endianness : Big
Codec ID : A_AC3
Duration : 1 h 59 min
Bit rate mode : Constant
Bit rate : 192 kb/s
Channel(s) : 2 channels
Channel positions : Front: L R
Sampling rate : 48.0 kHz
Frame rate : 31.250 FPS (1536 spf)
Bit depth : 16 bits
Compression mode : Lossy
Stream size : 164 MiB (1%)
Title : Профессиональный двухголосый закадровый
Language : Russian
Service kind : Complete Main
Default : Yes
Forced : No
Statistics Tags Issue : mkvmerge v16.0.0 ('Protest') 64-bit 2017-10-13 21:01:13 / mkvmerge v16.0.0 ('Protest') 64-bit 2017-10-13 21:01:13 / UTC 2017-10-01T02:25:57Z
FromStats_BitRate : 192000
FromStats_Duration : 01:59:37.184000000
FromStats_FrameCount : 224287
FromStats_StreamSize : 172252416

Audio #2
ID : 3
Format : AC-3
Format/Info : Audio Coding 3
Format settings, Endianness : Big
Codec ID : A_AC3
Duration : 1 h 59 min
Bit rate mode : Constant
Bit rate : 192 kb/s
Channel(s) : 2 channels
Channel positions : Front: L R
Sampling rate : 48.0 kHz
Frame rate : 31.250 FPS (1536 spf)
Bit depth : 16 bits
Compression mode : Lossy
Stream size : 164 MiB (1%)
Title : Авторский (А. Михалев)
Language : Russian
Service kind : Complete Main
Default : No
Forced : No
Statistics Tags Issue : mkvmerge v16.0.0 ('Protest') 64-bit 2017-10-13 21:01:13 / mkvmerge v16.0.0 ('Protest') 64-bit 2017-10-13 21:01:13 / UTC 2017-10-01T02:25:57Z
FromStats_BitRate : 192000
FromStats_Duration : 01:59:37.184000000
FromStats_FrameCount : 224287
FromStats_StreamSize : 172252416

Audio #3
ID : 4
Format : AC-3
Format/Info : Audio Coding 3
Format settings, Endianness : Big
Codec ID : A_AC3
Duration : 1 h 59 min
Bit rate mode : Constant
Bit rate : 192 kb/s
Channel(s) : 2 channels
Channel positions : Front: L R
Sampling rate : 48.0 kHz
Frame rate : 31.250 FPS (1536 spf)
Bit depth : 16 bits
Compression mode : Lossy
Stream size : 164 MiB (1%)
Title : Авторский (А. Гаврилов)
Language : Russian
Service kind : Complete Main
Default : No
Forced : No
Statistics Tags Issue : mkvmerge v16.0.0 ('Protest') 64-bit 2017-10-13 21:01:13 / mkvmerge v16.0.0 ('Protest') 64-bit 2017-10-13 21:01:13 / UTC 2017-10-01T02:25:57Z
FromStats_BitRate : 192000
FromStats_Duration : 01:59:37.184000000
FromStats_FrameCount : 224287
FromStats_StreamSize : 172252416

Audio #4
ID : 5
Format : DTS
Format/Info : Digital Theater Systems
Mode : 16
Format settings, Endianness : Big
Codec ID : A_DTS
Duration : 1 h 59 min
Bit rate mode : Constant
Bit rate : 1 509 kb/s
Channel(s) : 2 channels
Channel positions : Front: L R
Sampling rate : 48.0 kHz
Frame rate : 93.750 FPS (512 spf)
Bit depth : 24 bits
Compression mode : Lossy
Delay relative to video : 21 ms
Stream size : 1.26 GiB (10%)
Title : Авторский (А. Матвеев)
Language : Russian
Default : No
Forced : No
Statistics Tags Issue : mkvmerge v16.0.0 ('Protest') 64-bit 2017-10-13 21:01:13 / mkvmerge v16.0.0 ('Protest') 64-bit 2017-10-13 21:01:13 / UTC 2017-10-01T02:25:57Z
FromStats_BitRate : 1508999
FromStats_Duration : 01:59:37.142000000
FromStats_FrameCount : 672857
FromStats_StreamSize : 1353788284

Audio #5
ID : 6
Format : AC-3
Format/Info : Audio Coding 3
Format settings, Endianness : Big
Codec ID : A_AC3
Duration : 1 h 59 min
Bit rate mode : Constant
Bit rate : 448 kb/s
Channel(s) : 2 channels
Channel positions : Front: L R
Sampling rate : 48.0 kHz
Frame rate : 31.250 FPS (1536 spf)
Bit depth : 16 bits
Compression mode : Lossy
Delay relative to video : -5 ms
Stream size : 383 MiB (3%)
Language : French
Service kind : Complete Main
Default : No
Forced : No
Statistics Tags Issue : mkvmerge v16.0.0 ('Protest') 64-bit 2017-10-13 21:01:13 / mkvmerge v16.0.0 ('Protest') 64-bit 2017-10-13 21:01:13 / UTC 2017-10-01T02:25:57Z
FromStats_BitRate : 448000
FromStats_Duration : 01:59:37.152000000
FromStats_FrameCount : 224286
FromStats_StreamSize : 401920512

Text
ID : 7
Format : UTF-8
Codec ID : S_TEXT/UTF8
Codec ID/Info : UTF-8 Plain Text
Language : Russian
Default : No
Forced : No
Statistics Tags Issue : mkvmerge v16.0.0 ('Protest') 64-bit 2017-10-13 21:01:13 / mkvmerge v16.0.0 ('Protest') 64-bit 2017-10-13 21:01:13 / UTC 2017-10-01T02:25:57Z
FromStats_BitRate : 43
FromStats_Duration : 01:56:54.305000000
FromStats_FrameCount : 1053
FromStats_StreamSize : 38394

Menu
00:00:00.000 : :Chapter 1
00:03:13.568 : :Chapter 2
00:07:10.972 : :Chapter 3
00:15:20.837 : :Chapter 4
00:25:30.904 : :Chapter 5
00:32:25.652 : :Chapter 6
00:35:15.071 : :Chapter 7
00:42:58.993 : :Chapter 8
00:46:50.975 : :Chapter 9
00:50:28.108 : :Chapter 10
00:57:29.655 : :Chapter 11
01:08:34.652 : :Chapter 12
01:14:30.883 : :Chapter 13
01:26:11.541 : :Chapter 14
01:44:47.990 : :Chapter 15
01:56:42.162 : :Chapter 16


Релиз от: | Silverok


_________________
Проголосуй за трекер Открытый торрент трекер - RUS-MEDIA.ORG

Проголосуй Открытый торрент трекер - RUS-MEDIA.ORG



реклама партнёра


Вернуться к началу
 Профиль Отправить личное сообщение  
 
   Похожие торренты   Автор   Торрент   Размер 
В этой теме нет новых непрочитанных сообщений. Пассажир дождя / Le passager de la pluie [триллер, драма, криминал, 1969] DVDRip-AVC, Dvo+Avo+Sub

salma3

83 | 20

2.28 ГБ

В этой теме нет новых непрочитанных сообщений. Пассажир дождя / Le Passager de la pluie [Детектив, триллер, драма, 1969] BDRip-AVC, Dvo

salma3

11 | 5

2.19 ГБ

В этой теме нет новых непрочитанных сообщений. Пассажир 57 / Passenger 57 [боевик, триллер, криминал, 1992] BDRip-HEVC 1080p, Dub

salma3

5 | 6

3.7 ГБ

В этой теме нет новых непрочитанных сообщений. Пассажир 57 / Passenger 57 [Боевик, триллер, криминал, 1992] BDRemux 1080p, Dub

salma3

4 | 1

17.37 ГБ

В этой теме нет новых непрочитанных сообщений. Пассажир 57 / Passenger 57 [боевик, триллер, криминал, 1992] BDRip 720p, Dub

salma3

226 | 67

5.32 ГБ

В этой теме нет новых непрочитанных сообщений. Бассейн / La piscine [драма, мелодрама, криминал, 1969] BDRip 1080p, Dub

salma3

5 | 0

10.53 ГБ

В этой теме нет новых непрочитанных сообщений. Сирена «Миссисипи» / La sirène du Mississipi [Драма, мелодрама, криминал, экранизация, 1969] BDRip 1080p, Mvo+Sub

salma3

40 | 11

9.36 ГБ


Начать новую тему Ответить на тему  [ 1 сообщение ] 




Для Мосгорсуда, Роскомнадзора и рекламодателей:: mosgorsud-torrent[собачка]yandex.ru