Торрент файл
скачать торрент магнет ссылка Добавлен: 13 окт 2017, 21:30
Размер: 17.58 ГБ
Сидеров: 18
Личеров: 7
Статус: (salma3)
Автор

СообщениеДобавлено: 13 окт 2017, 21:30 

Не в сети
Супермодератор
Аватара пользователя
Дата регистрации:
15 фев 2012, 16:44
Возраст: 28
Спасибо: 7163 / 2147
Сообщения: 61708
Год выхода: 2011
Жанр: Фантастика, триллер
Режиссер: Стивен Содерберг

В ролях: Мэтт Дэймон, Марион Котийяр, Джуд Лоу, Гвинет Пэлтроу, Кейт Уинслет, Дженнифер Или, Лоуренс Фишборн, Брайан Крэнстон, Джон Хоукс, Санаа Лэтэн

О фильме:
Международная организация врачей совместно с Центром по контролю и профилактике заболеваний США пытается помешать распространению смертельного вируса.



Страна: США, ОАЭ
Продолжительность: 01:46:26
Перевод: Дублированный, авторский

Файл
Кодек: MPEG-4 AVC
Качество: BDRemux
Видео: 16845 Кбит/с, 1920x1080, 23.976 кадр/с
Аудио 1: Английский: DTS-HD MA 5.1, 48 kHz, 3633 kbps avg (DTS Core: 5.1 / 48 kHz / 1509 kbps / 24-bit) - Оригинал
Аудио 2: Английский: AC3 5.1, 48 kHz, 640 kbps avg - Оригинал
Аудио 3: Русский: AC3 5.1, 48 kHz, 640 kbps avg - Дубляж
Аудио 4: Русский: 48 kHz, DTS, 3/2 (L,C,R,l,r) + LFE ch, ~1536.00 kbps avg - Авторский (Немахов)
Аудио 5: Украинский: 48 kHz, AC3, 3/2 (L,C,R,l,r) + LFE ch, ~384.00 kbps avg - Дубляж
Субтитры: Русские, английские, украинские
Главы: есть


Общее
Уникальный идентификатор : 235717015637762057046303840316521983363 (0xB15572254FDF9F2A98ADFCC95E542D83)
Полное имя : D:\РЕМУКС!!!!!\Заражение.BDRemux.mkv
Формат : Matroska
Версия формата : Version 4 / Version 2
Размер файла : 17,6 Гбайт
Продолжительность : 1 ч. 46 м.
Режим общего битрейта : Переменный
Общий поток : 23,7 Мбит/сек
Название фильма : Заражение.BDRemux.thx:SPOMOPS.
Дата кодирования : UTC 2016-01-20 11:57:34
Программа кодирования : mkvmerge v6.1.0 ('Old Devil') built on Mar 4 2013 09:10:42
Библиотека кодирования : libebml v1.3.0 + libmatroska v1.4.0

Видео
Идентификатор : 1
Формат : AVC
Формат/Информация : Advanced Video Codec
Профиль формата : High@L4.1
Параметр CABAC формата : Да
Параметр ReFrames формата : 2 кадра
Идентификатор кодека : V_MPEG4/ISO/AVC
Продолжительность : 1 ч. 46 м.
Вид битрейта : Переменный
Ширина : 1920 пикселей
Высота : 1080 пикселей
Соотношение сторон : 16:9
Режим частоты кадров : Постоянный
Частота кадров : 23,976 кадра/сек
Цветовое пространство : YUV
Субдискретизация насыщенности : 4:2:0
Битовая глубина : 8 бит
Тип развёртки : Прогрессивная
Default : Да
Forced : Нет

Аудио #1
Идентификатор : 2
Формат : DTS
Формат/Информация : Digital Theater Systems
Профиль формата : MA / Core
Режим : 16
Параметр Endianness формата : Big
Идентификатор кодека : A_DTS
Продолжительность : 1 ч. 46 м.
Вид битрейта : Переменный
Битрейт : Неизвестно / 1509 Кбит/сек
Каналы : 6 каналов
Расположение каналов : Front: L C R, Side: L R, LFE
Частота : 48,0 КГц
Битовая глубина : 24 бит
Метод сжатия : Без потерь / Lossy
Заголовок : Английский DTS-HD MA 3633 kbps
Язык : English
Default : Нет
Forced : Нет

Аудио #2
Идентификатор : 3
Формат : AC-3
Формат/Информация : Audio Coding 3
Расширение режима : CM (complete main)
Параметр Endianness формата : Big
Идентификатор кодека : A_AC3
Продолжительность : 1 ч. 46 м.
Вид битрейта : Постоянный
Битрейт : 640 Кбит/сек
Каналы : 6 каналов
Расположение каналов : Front: L C R, Side: L R, LFE
Частота : 48,0 КГц
Битовая глубина : 16 бит
Метод сжатия : С потерями
Размер потока : 487 Мбайт (3%)
Заголовок : Английский AC3 640 kbps
Язык : English
Default : Нет
Forced : Нет

Аудио #3
Идентификатор : 4
Формат : AC-3
Формат/Информация : Audio Coding 3
Расширение режима : CM (complete main)
Параметр Endianness формата : Big
Идентификатор кодека : A_AC3
Продолжительность : 1 ч. 46 м.
Вид битрейта : Постоянный
Битрейт : 640 Кбит/сек
Каналы : 6 каналов
Расположение каналов : Front: L C R, Side: L R, LFE
Частота : 48,0 КГц
Битовая глубина : 16 бит
Метод сжатия : С потерями
Размер потока : 487 Мбайт (3%)
Заголовок : Русский AC3 640 kbps - Дубляж
Язык : Russian
Default : Да
Forced : Нет

Аудио #4
Идентификатор : 5
Формат : DTS
Формат/Информация : Digital Theater Systems
Режим : 16
Параметр Endianness формата : Big
Идентификатор кодека : A_DTS
Продолжительность : 1 ч. 46 м.
Вид битрейта : Постоянный
Битрейт : 1509 Кбит/сек
Каналы : 6 каналов
Расположение каналов : Front: L C R, Side: L R, LFE
Частота : 48,0 КГц
Битовая глубина : 24 бит
Метод сжатия : С потерями
Размер потока : 1,12 Гбайт (6%)
Заголовок : Русский DTS,1536.00 kbps, Ю.Немахов
Язык : Russian
Default : Нет
Forced : Нет

Аудио #5
Идентификатор : 6
Формат : AC-3
Формат/Информация : Audio Coding 3
Расширение режима : CM (complete main)
Параметр Endianness формата : Big
Идентификатор кодека : A_AC3
Продолжительность : 1 ч. 46 м.
Вид битрейта : Постоянный
Битрейт : 384 Кбит/сек
Каналы : 6 каналов
Расположение каналов : Front: L C R, Side: L R, LFE
Частота : 48,0 КГц
Битовая глубина : 16 бит
Метод сжатия : С потерями
Размер потока : 292 Мбайт (2%)
Заголовок : Украинский AC3,384.00 kbps - Дубляж
Язык : Ukrainian
Default : Нет
Forced : Нет

Текст #1
Идентификатор : 7
Формат : UTF-8
Идентификатор кодека : S_TEXT/UTF8
Идентификатор кодека/Информация : UTF-8 Plain Text
Заголовок : Русские форс.
Язык : Russian
Default : Да
Forced : Нет

Текст #2
Идентификатор : 8
Формат : UTF-8
Идентификатор кодека : S_TEXT/UTF8
Идентификатор кодека/Информация : UTF-8 Plain Text
Заголовок : Русские
Язык : Russian
Default : Нет
Forced : Нет

Текст #3
Идентификатор : 9
Формат : UTF-8
Идентификатор кодека : S_TEXT/UTF8
Идентификатор кодека/Информация : UTF-8 Plain Text
Заголовок : Английские
Язык : English
Default : Нет
Forced : Нет

Текст #4
Идентификатор : 10
Формат : UTF-8
Идентификатор кодека : S_TEXT/UTF8
Идентификатор кодека/Информация : UTF-8 Plain Text
Заголовок : Украинские
Язык : Ukrainian
Default : Нет
Forced : Нет

Меню
00:00:00.000 : en:Chapter 1
00:04:33.356 : en:Chapter 2
00:07:26.780 : en:Chapter 3
00:11:08.960 : en:Chapter 4
00:14:20.818 : en:Chapter 5
00:16:01.043 : en:Chapter 6
00:17:44.814 : en:Chapter 7
00:20:15.464 : en:Chapter 8
00:22:23.634 : en:Chapter 9
00:24:11.909 : en:Chapter 10
00:26:55.781 : en:Chapter 11
00:30:31.997 : en:Chapter 12
00:34:17.097 : en:Chapter 13
00:36:35.026 : en:Chapter 14
00:38:40.735 : en:Chapter 15
00:41:28.236 : en:Chapter 16
00:42:51.068 : en:Chapter 17
00:46:55.146 : en:Chapter 18
00:49:49.403 : en:Chapter 19
00:52:00.951 : en:Chapter 20
00:53:57.609 : en:Chapter 21
00:57:30.364 : en:Chapter 22
01:00:54.234 : en:Chapter 23
01:03:22.716 : en:Chapter 24
01:07:42.392 : en:Chapter 25
01:10:21.259 : en:Chapter 26
01:12:34.225 : en:Chapter 27
01:15:35.322 : en:Chapter 28
01:18:10.227 : en:Chapter 29
01:22:34.032 : en:Chapter 30
01:25:23.410 : en:Chapter 31
01:31:28.358 : en:Chapter 32
01:34:35.295 : en:Chapter 33
01:36:10.556 : en:Chapter 34
01:41:28.332 : en:Chapter 35



_________________
Проголосуй за трекер Открытый торрент трекер - RUS-MEDIA.ORG

Проголосуй Открытый торрент трекер - RUS-MEDIA.ORG


Вернуться к началу
 Профиль Отправить личное сообщение  
 
   Похожие торренты   Автор   Торрент   Размер 
В этой теме нет новых непрочитанных сообщений. Заражение / Contagion [триллер, драма, 2011] BDRip 1080p, Dub

salma3

0 | 0

4.37 ГБ

В этой теме нет новых непрочитанных сообщений. Нечто / The Thing [Ужасы, фантастика, триллер, 2011] BDRemux 1080р, Dub

salma3

7 | 5

35.32 ГБ

В этой теме нет новых непрочитанных сообщений. Я – Четвертый / I Am Number Four [фантастика, боевик, триллер, 2011] BDRemux 1080р, Dub

salma3

29 | 8

23.81 ГБ

В этой теме нет новых непрочитанных сообщений. Супер 8 / Super 8 [фантастика, триллер, детектив, 2011] BDRemux 1080p, Dub [Лицензия]

salma3

17 | 7

21.48 ГБ

В этой теме нет новых непрочитанных сообщений. Исходный код / Source Code [фантастика, боевик, триллер, 2011] UHD BDRemux 2160p, Dub

salma3

1 | 22

50.86 ГБ

В этой теме нет новых непрочитанных сообщений. Чужие на районе / Attack the Block [фантастика, боевик, триллер, комедия, 2011] BDRemux 1080p, Mvo

salma3

10 | 6

20.54 ГБ

В этой теме нет новых непрочитанных сообщений. Восстание планеты обезьян / Rise of the Planet of the Apes [Фантастика, боевик, триллер, 2011] BDRemux 1080p, Dub

salma3

0 | 0

34.53 ГБ


Начать новую тему Ответить на тему  [ 1 сообщение ] 




Для Мосгорсуда, Роскомнадзора и рекламодателей:: mosgorsud-torrent[собачка]yandex.ru
cron