Торрент файл
скачать торрент магнет ссылка Добавлен: 12 окт 2017, 11:26
Размер: 24.16 ГБ
Сидеров: 5
Личеров: 2
Статус: (salma3)
Автор

СообщениеДобавлено: 12 окт 2017, 11:26 

Не в сети
Супермодератор
Аватара пользователя
Дата регистрации:
15 фев 2012, 16:44
Возраст: 28
Спасибо: 7061 / 2147
Сообщения: 59170
Год выхода: 2008
Жанр: Триллер, драма, военный, история
Режиссер: Брайан Сингер

В ролях: Том Круз, Кеннет Брана, Билл Найи, Том Уилкинсон, Кэрис ван Хаутен, Томас Кречманн, Теренс Стэмп, Эдди Иззард, Кевин МакНэлли, Кристиан Беркель, Джэми Паркер, Дэвид Бамбер, Том Холландер, Дэвид Скофилд, Кеннет Крэнэм, Халина Рейн, Вернер Даен

О фильме:
Заговор 20 июля — один из самых героических, но и наименее известных эпизодов Второй Мировой войны. В стране, погруженной в пучину зла, где пристально следят за каждым твоим шагом, где понятия «честь» и «справедливость» утратили свой подлинный смысл, группа людей, которые сами принадлежат к верхушке власти, решается предпринять серьезный шаг и остановить это зло. Том Круз исполнил главную роль в исторической драме «Валькирия», сюжет которой основан на подлинной истории полковника Клауса фон Штауффенберга, организатора смелого заговора по устранению одного из величайших диктаторов в истории человечества.



Страна: США, Германия
Продолжительность: 02:00:20
Перевод: Дублированный, авторский

Файл
Кодек: MPEG-4 AVC
Качество: BDRemux 1080p
Видео: 22963 Кбит/с, 1920x1080, 23.976 кадр/с
Аудио1: Русский: 48 kHz, DTS, 3/2 (L,C,R,l,r) + LFE ch, ~768.00 kbps avg - Дубляж
Аудио2: Русский: 48 kHz, AC3, 3/2 (L,C,R,l,r) + LFE ch, ~448.00 kbps avg - Дубляж
Аудио3: Русский: 48 kHz, AC3, 3/2 (L,C,R,l,r) + LFE ch, ~448.00 kbps avg - Авторский (Живов)
Аудио4: Английский: 48 kHz, DTS-HD MA, 3/2 (L,C,R,l,r) + LFE ch, ~3599.00 kbps avg - Оригинал
Аудио5: Украинский: 48 kHz, AC3, 3/2 (L,C,R,l,r) + LFE ch, ~448.00 kbps avg - Дубляж
Субтитры: Русские, английские
Главы: есть

Сатурн, 2009 год
• Номинации (7):
Лучший режиссер (Брайан Сингер)
Лучший актер (Том Круз)
Лучший актер второго плана (Билл Найи)
Лучшая актриса второго плана (Кэрис ван Хаутен)
Лучшие костюмы
Лучшая музыка
Лучший приключенческий фильм, боевик или триллер

❖ В 2004 году Клауса фон Штауффенберга официально признали героем Сопротивления. На месте его казни принимают присягу военнослужащие.

❖ Младшую дочь Клауса фон Штауффенберга, Валери фон Штауффенберг, играли сразу две актрисы-близняшки: Аника и Мари Бейкер.
Перед съёмками сцены расстрела Штауффенберга в Бендлерблоке съёмочная группа почтила память расстрелянных здесь офицеров минутой молчания.

❖ Карис Ван Хаутен, сыгравшая жену полковника Штауффенберга, в действительности гражданская жена Себастьяна Коха, игравшего Штауффенберга в немецком телефильме о «Валькирии».

❖ В фильме были использованы настоящие кители немецких офицеров Второй мировой.

❖ Круз — не единственный известный актер, который похож на фон Штауффенберга. Эту роль предлагали также Патрику Уилсону («Как малые дети»), но из-за коммерческих соображений выбрали Круза.

❖ На роль Гитлера приглашали австрийского актера Тобиаса Моретти, уже игравшего фюрера в мини-сериале «Шпеер и Гитлер: Архитектор дьявола» (2005), но тот не смог найти окно в графике съемок.

❖ Во время съемок в Берлине пострадало одиннадцать статистов, игравших солдат вермахта. Из-за плохо закрепленной стенки кузова они выпали из грузовика на полном ходу.

❖ Несколько сцен фильма пришлось переснимать из-за того, что во время обработки пленки техники перемудрили с химией и отснятый материал был уничтожен.

❖ В начале фильма показан аэродром под Смоленском, на который приземляется самолёт. На поле — зелёная трава. Вокруг — деревья с зелёной листвой. И надпись «Смоленск. 13 марта 1944г.».

Общее
Уникальный идентификатор : 253826352878104537888910909493394873934 (0xBEF52D68018378869FA99B3160D51E4E)
Полное имя : D:\Кинозал.TV. НР\Операция «Валькирия».BDRemux..mkv
Формат : Matroska
Версия формата : Version 4 / Version 2
Размер файла : 24,2 Гбайт
Продолжительность : 2 ч. 0 м.
Режим общего битрейта : Переменный
Общий поток : 28,7 Мбит/сек
Название фильма : Операция «Валькирия».BDRemux. thx: SPOMOPS
Дата кодирования : UTC 2015-11-04 07:49:48
Программа кодирования : mkvmerge v6.0.0 ('Coming Up For Air') built on Jan 20 2013 09:52:00
Библиотека кодирования : libebml v1.3.0 + libmatroska v1.4.0

Видео
Идентификатор : 1
Формат : AVC
Формат/Информация : Advanced Video Codec
Профиль формата : High@L4.1
Параметр CABAC формата : Да
Параметр ReFrames формата : 4 кадра
Идентификатор кодека : V_MPEG4/ISO/AVC
Продолжительность : 2 ч. 0 м.
Вид битрейта : Переменный
Максимальный битрейт : 37,0 Мбит/сек
Ширина : 1920 пикселей
Высота : 1080 пикселей
Соотношение сторон : 16:9
Режим частоты кадров : Постоянный
Частота кадров : 23,976 кадра/сек
Цветовое пространство : YUV
Субдискретизация насыщенности : 4:2:0
Битовая глубина : 8 бит
Тип развёртки : Прогрессивная
Default : Да
Forced : Нет
Основные цвета : BT.709
Характеристики трансфера : BT.709
Коэффициенты матрицы : BT.709

Аудио #1
Идентификатор : 2
Формат : DTS
Формат/Информация : Digital Theater Systems
Режим : 16
Параметр Endianness формата : Big
Идентификатор кодека : A_DTS
Продолжительность : 2 ч. 0 м.
Вид битрейта : Постоянный
Битрейт : 768 Кбит/сек
Каналы : 6 каналов
Расположение каналов : Front: L C R, Side: L R, LFE
Частота : 48,0 КГц
Битовая глубина : 24 бит
Метод сжатия : С потерями
Размер потока : 661 Мбайт (3%)
Заголовок : Русский DTS 5.1, 48 kHz, 24 bit, 768 kbps - дубляж
Язык : Russian
Default : Да
Forced : Нет

Аудио #2
Идентификатор : 3
Формат : AC-3
Формат/Информация : Audio Coding 3
Расширение режима : CM (complete main)
Параметр Endianness формата : Big
Идентификатор кодека : A_AC3
Продолжительность : 2 ч. 0 м.
Вид битрейта : Постоянный
Битрейт : 448 Кбит/сек
Каналы : 6 каналов
Расположение каналов : Front: L C R, Side: L R, LFE
Частота : 48,0 КГц
Битовая глубина : 16 бит
Метод сжатия : С потерями
Размер потока : 386 Мбайт (2%)
Заголовок : Русский АСЗ 448 kbps - дубляж
Язык : Russian
Default : Нет
Forced : Нет

Аудио #3
Идентификатор : 4
Формат : AC-3
Формат/Информация : Audio Coding 3
Расширение режима : CM (complete main)
Параметр Endianness формата : Big
Идентификатор кодека : A_AC3
Продолжительность : 2 ч. 0 м.
Вид битрейта : Постоянный
Битрейт : 448 Кбит/сек
Каналы : 6 каналов
Расположение каналов : Front: L C R, Side: L R, LFE
Частота : 48,0 КГц
Битовая глубина : 16 бит
Метод сжатия : С потерями
Размер потока : 386 Мбайт (2%)
Заголовок : Русский АСЗ 448 kbps - Живов
Язык : Russian
Default : Нет
Forced : Нет

Аудио #4
Идентификатор : 5
Формат : DTS
Формат/Информация : Digital Theater Systems
Профиль формата : MA / Core
Режим : 16
Параметр Endianness формата : Big
Идентификатор кодека : A_DTS
Продолжительность : 2 ч. 0 м.
Вид битрейта : Переменный
Битрейт : Неизвестно / 1509 Кбит/сек
Каналы : 6 каналов
Расположение каналов : Front: L C R, Side: L R, LFE
Частота : 48,0 КГц
Битовая глубина : 24 бит
Метод сжатия : Без потерь / Lossy
Заголовок : Английский DTS-HD MA 3685 kbps - оригинал
Язык : English
Default : Нет
Forced : Нет

Аудио #5
Идентификатор : 6
Формат : AC-3
Формат/Информация : Audio Coding 3
Расширение режима : CM (complete main)
Параметр Endianness формата : Big
Идентификатор кодека : A_AC3
Продолжительность : 2 ч. 0 м.
Вид битрейта : Постоянный
Битрейт : 448 Кбит/сек
Каналы : 6 каналов
Расположение каналов : Front: L C R, Side: L R, LFE
Частота : 48,0 КГц
Битовая глубина : 16 бит
Метод сжатия : С потерями
Размер потока : 386 Мбайт (2%)
Заголовок : Украинский АСЗ 448 kbps
Язык : Ukrainian
Default : Нет
Forced : Нет

Текст #1
Идентификатор : 7
Формат : UTF-8
Идентификатор кодека : S_TEXT/UTF8
Идентификатор кодека/Информация : UTF-8 Plain Text
Заголовок : Русские - полные
Язык : Russian
Default : Нет
Forced : Нет

Текст #2
Идентификатор : 8
Формат : UTF-8
Идентификатор кодека : S_TEXT/UTF8
Идентификатор кодека/Информация : UTF-8 Plain Text
Заголовок : Русские - надписи
Язык : Russian
Default : Нет
Forced : Нет

Текст #3
Идентификатор : 9
Формат : UTF-8
Идентификатор кодека : S_TEXT/UTF8
Идентификатор кодека/Информация : UTF-8 Plain Text
Заголовок : Английские
Язык : English
Default : Нет
Forced : Нет

Меню
00:00:00.000 : :Chapter 01
00:03:16.404 : :Chapter 02
00:06:21.714 : :Chapter 03
00:11:05.498 : :Chapter 04
00:14:55.978 : :Chapter 05
00:17:48.901 : :Chapter 06
00:20:43.909 : :Chapter 07
00:22:58.460 : :Chapter 08
00:26:04.020 : :Chapter 09
00:29:52.624 : :Chapter 10
00:32:15.850 : :Chapter 11
00:34:21.142 : :Chapter 12
00:36:35.193 : :Chapter 13
00:42:32.341 : :Chapter 14
00:46:07.723 : :Chapter 15
00:48:07.134 : :Chapter 16
00:51:17.449 : :Chapter 17
00:55:05.969 : :Chapter 18
00:58:26.878 : :Chapter 19
00:59:35.154 : :Chapter 20
01:02:06.264 : :Chapter 21
01:08:22.890 : :Chapter 22
01:11:03.717 : :Chapter 23
01:16:05.018 : :Chapter 24
01:20:29.741 : :Chapter 25
01:23:05.397 : :Chapter 26
01:27:23.112 : :Chapter 27
01:30:22.959 : :Chapter 28
01:34:41.550 : :Chapter 29
01:37:41.272 : :Chapter 30
01:43:58.482 : :Chapter 31
01:50:11.688 : :Chapter 32
02:00:20.713 : :Chapter 33



_________________
Проголосуй за трекер Открытый торрент трекер - RUS-MEDIA.ORG

Проголосуй Открытый торрент трекер - RUS-MEDIA.ORG


Вернуться к началу
 Профиль Отправить личное сообщение  
 
   Похожие торренты   Автор   Торрент   Размер 
В этой теме нет новых непрочитанных сообщений. После Валькирии: Рассвет четвертого Рейха / Beyond Valkyrie: Dawn of the 4th Reich [боевик, военный, история, 2016] WEB-DL 1080p, Mvo [iTunes]

salma3

291 | 22

4.24 ГБ

В этой теме нет новых непрочитанных сообщений. После Валькирии: Рассвет четвертого Рейха / Beyond Valkyrie: Dawn of the 4th Reich [боевик, военный, история, 2016] WEBDLRip, Mvo [iTunes]

salma3

320 | 120

1.37 ГБ

В этой теме нет новых непрочитанных сообщений. После Валькирии: Рассвет четвертого Рейха / Beyond Valkyrie: Dawn of the 4th Reich [боевик, военный, история, 2016] WEB-DL 720p, Mvo [iTunes]

salma3

153 | 16

3.09 ГБ

В этой теме нет новых непрочитанных сообщений. Бункер / Downfall / Der Untergang [Драма, военный, история, биография, 2004] BDRemux 1080p, Mvo

salma3

0 | 0

34.15 ГБ

В этой теме нет новых непрочитанных сообщений. Последний самурай / The Last Samurai [Боевик, драма, военный, история, 2003] BDRemux 1080p, Dub

salma3

10 | 15

25.35 ГБ

В этой теме нет новых непрочитанных сообщений. Дюнкерк / Dunkirk [Военный, драма, история, 2017] BDRemux 1080p, Dub [IMAX] [Лицензия]

salma3

94 | 2

26.31 ГБ

В этой теме нет новых непрочитанных сообщений. Холодное танго [Мелодрама, военный, драма, история, 2017] BDRemux 1080p [Лицензия]

salma3

10 | 0

16.94 ГБ


Начать новую тему Ответить на тему  [ 1 сообщение ] 




Для Мосгорсуда, Роскомнадзора и рекламодателей:: mosgorsud-torrent[собачка]yandex.ru
cron