Торрент файл
скачать торрент магнет ссылка Добавлен: 11 окт 2017, 20:40
Размер: 4.37 ГБ
Сидеров: 53
Личеров: 16
Статус: (salma3)
Автор

СообщениеДобавлено: 11 окт 2017, 20:40 

Не в сети
Супермодератор
Аватара пользователя
Дата регистрации:
15 фев 2012, 16:44
Возраст: 28
Спасибо: 7204 / 2147
Сообщения: 65204
Год выхода: 2011
Жанр: боевик, триллер, криминал
Режиссер: Мортен Тильдум

В ролях: Аксель Хенни, Николай Костер-Вальдау, Синневе Макоди Лунд, Юлье Ольгорд, Карре Хаген Сиднесс, Рейдар Серенсен, Нильс Йорген Каалстад, Йоахим Рафаелсен, Gunnar Skramstad Johnsen, Lars Skramstad Johnsen

О фильме: Роджер Браун — блестящий «охотник за головами», незаменимый специалист по подбору топ-менеджеров для крупнейших фирм. Он может найти нужного человека на любую должность и его рекомендация — залог получения работы. Чтобы удержать красавицу жену, открывшую на деньги мужа картинную галерею в модном районе, Роджер давно уже живет не по средствам, и, пользуясь своим служебным положением, крадет дорогие картины у претендентов на руководящие должности. Однажды Роджер встречает голландца Класа Граафа: идеального кандидата для фирмы специализирующейся на навигационном оборудовании и — вот удача! — владельца картины Рубенса, считавшейся утерянной во время Второй Мировой войны. Кража и последующая продажа шедевра может помочь Роджеру навсегда решить все финансовые проблемы. Но, внезапно, «охотник за головами» сам превращается в добычу.



Выпущено: Friland
Продолжительность: 01:40:06
Перевод: Дублированный

Файл
Кодек: x264
Качество: BDRip 1080p
Видео: 1920x800 (2,40:1), 24 fps, 5802 kbps
Звук: 48 kHz, AC-3, 6 ch, 448 kbps
Субтитры: Английские

Скачать: сэмпл

Общее
Уникальный идентификатор : 174885995717942827330186858222306623706 (0x8391D14E47D21F748103854117BA80DA)
Полное имя : Hodejegerne.2011.BDRip.1080p.Rus.mkv
Формат : Matroska
Версия формата : Version 2
Размер файла : 4,37 Гбайт
Продолжительность : 1 ч. 40 м.
Общий поток : 6252 Кбит/сек
Название фильма : Охотники за головами / Hodejegerne (2011)
Дата кодирования : UTC 2012-02-05 21:02:58
Программа кодирования : mkvmerge v4.0.0 ('The Stars were mine') сборка от Jun 6 2010 16:18:42
Библиотека кодирования : libebml v1.0.0 + libmatroska v1.0.0

Видео
Идентификатор : 1
Формат : AVC
Формат/Информация : Advanced Video Codec
Профиль формата : High@L4.1
Параметр CABAC формата : Да
Параметр ReFrames формата : 5 кадров
Идентификатор кодека : V_MPEG4/ISO/AVC
Продолжительность : 1 ч. 40 м.
Битрейт : 5802 Кбит/сек
Ширина : 1920 пикселей
Высота : 800 пикселей
Соотношение сторон : 2,40:1
Частота кадров : 24,000 кадра/сек
Цветовое пространство : YUV
Субдискретизация насыщенности : 4:2:0
Битовая глубина : 8 бит
Тип развёртки : Прогрессивная
Бит/(Пиксели*Кадры) : 0.157
Размер потока : 3,97 Гбайт (91%)
Заголовок : Release by AlexKa
Библиотека кодирования : x264 core 120 r2146 bcd41db
Настройки программы : cabac=1 / ref=5 / deblock=1:0:0 / analyse=0x3:0x133 / me=umh / subme=10 / psy=1 / psy_rd=1.00:0.10 / mixed_ref=1 / me_range=32 / chroma_me=1 / trellis=2 / 8x8dct=1 / cqm=0 / deadzone=21,11 / fast_pskip=0 / chroma_qp_offset=-3 / threads=12 / sliced_threads=0 / nr=0 / decimate=1 / interlaced=0 / bluray_compat=0 / constrained_intra=0 / bframes=5 / b_pyramid=2 / b_adapt=2 / b_bias=0 / direct=3 / weightb=1 / open_gop=0 / weightp=2 / keyint=240 / keyint_min=24 / scenecut=40 / intra_refresh=0 / rc_lookahead=60 / rc=2pass / mbtree=1 / bitrate=5802 / ratetol=1.0 / qcomp=0.60 / qpmin=0 / qpmax=69 / qpstep=4 / cplxblur=20.0 / qblur=0.5 / ip_ratio=1.40 / aq=1:1.00
Язык : Norwegian

Аудио
Идентификатор : 2
Формат : AC-3
Формат/Информация : Audio Coding 3
Расширение режима : CM (complete main)
Идентификатор кодека : A_AC3
Продолжительность : 1 ч. 40 м.
Вид битрейта : Постоянный
Битрейт : 448 Кбит/сек
Каналы : 6 каналов
Расположение каналов : Front: L C R, Side: L R, LFE
Частота : 48,0 КГц
Битовая глубина : 16 бит
Метод сжатия : С потерями
Размер потока : 321 Мбайт (7%)
Язык : Russian

Текст
Идентификатор : 3
Формат : UTF-8
Идентификатор кодека : S_TEXT/UTF8
Идентификатор кодека/Информация : UTF-8 Plain Text
Язык : English

Меню
00:00:00.000 : :Chapter 01
00:06:50.458 : :Chapter 02
00:12:57.625 : :Chapter 03
00:17:13.750 : :Chapter 04
00:24:38.958 : :Chapter 05
00:30:14.917 : :Chapter 06
00:36:21.708 : :Chapter 07
00:41:42.292 : :Chapter 08
00:48:17.125 : :Chapter 09
00:53:49.167 : :Chapter 10
00:58:47.500 : :Chapter 11
01:05:00.083 : :Chapter 12
01:12:10.167 : :Chapter 13
01:20:13.042 : :Chapter 14
01:27:04.042 : :Chapter 15
01:34:20.958 : :Chapter 16


_________________
Проголосуй за трекер Открытый торрент трекер - RUS-MEDIA.ORG

Проголосуй Открытый торрент трекер - RUS-MEDIA.ORG


Вернуться к началу
 Профиль Отправить личное сообщение  
 
   Похожие торренты   Автор   Торрент   Размер 
В этой теме нет новых непрочитанных сообщений. Охотники за головами / Hodejegerne [триллер, драма, криминал, 2011] HDRip-AVC, Dub

salma3

24 | 2

745.05 МБ

В этой теме нет новых непрочитанных сообщений. Охотники за головами / Bounty Hunters [боевик, мелодрама, комедия, 2016] BDRemux 1080p, Mvo

salma3

87 | 40

18.52 ГБ

В этой теме нет новых непрочитанных сообщений. Охотники за головами / Bounty Hunters (Боевик, мелодрама, комедия, 2016) BDRip от ExKinoRay | L

marya111

57 | 4

1.45 ГБ

В этой теме нет новых непрочитанных сообщений. Охотники за головами / Bounty Huntersl [S01] [Боевик, комедия, приключения, 2017] HDTVRip-AVC, Dvo [Ozz]

salma3

61 | 38

3.39 ГБ

В этой теме нет новых непрочитанных сообщений. Охотники за головами / Bounty Hunters [боевик, мелодрама, комедия, 2016] WEB-DL 720p, dvo

marya111

0 | 0

2.8 ГБ

В этой теме нет новых непрочитанных сообщений. Охотники / The Hunters [триллер, 2011] BDRip 1080p, Dvo

salma3

33 | 12

8.36 ГБ

В этой теме нет новых непрочитанных сообщений. Охотники за разумом / Mindhunters [триллер, криминал, детектив, 2004] WEB-DL 1080p, Dub+Mvo+Dvo+Avo+Sub

salma3

85 | 20

11.29 ГБ


Начать новую тему Ответить на тему  [ 1 сообщение ] 




Для Мосгорсуда, Роскомнадзора и рекламодателей:: mosgorsud-torrent[собачка]yandex.ru
cron