Торрент файл
скачать торрент магнет ссылка Добавлен: 21 окт 2017, 01:59
Размер: 3.23 ГБ
Сидеров: 1648
Личеров: 147
Статус: (salma3)
Автор

СообщениеДобавлено: 10 окт 2017, 15:02 

Не в сети
Супермодератор
Аватара пользователя
Дата регистрации:
15 фев 2012, 16:44
Возраст: 28
Спасибо: 7199 / 2147
Сообщения: 64757
Год выхода: 2017
Жанр: Боевик, Детектив, Криминал
Режиссер: Тейлор Шеридан

В ролях: Джереми Реннер, Элизабет Олсен, Джон Бернтал, Келси Чоу, Джулия Джонс, Тео Брионес, Апесанахкват, Грэм Грин, Танту Кардинал, Эрик Ланж

О фильме:
В пустыне на территории индейской резервации «Ветреная река» егерь Кори Ламберт находит изувеченное тело молодой девушки. Опытный охотник с трагическим прошлым, он берется помочь в расследовании этого дела агенту ФБР Джейн Бэннер, которая оказывается в мире, полном загадок и насилия. Но смогут ли они противостоять зловещим силам этих мест, где сама природа пропитана горечью и жаждой мщения?..



Страна: Великобритания, Канада, США
Продолжительность: 01:46:57
Перевод: Профессиональный (дублированный) [iTunes]

Файл
Качество: WEB-DLRip 720p
Видео: 1280x536 at 24.000 fps, MPEG-4 AVC, ~3580 kbps avg
Aудио#1: Russian: 48 kHz, AC3, 3/2 (L,C,R,l,r) + LFE ch, ~384.00 kbps avg
Aудио#2: English: 48 kHz, AC3, 3/2 (L,C,R,l,r) + LFE ch, ~384.00 kbps avg

General
Unique ID : 176689606892068701428268970495261901531 (0x84ED2E33C6BF0C828B49B330A47582DB)
Complete name : Wind.River.2017.WEB-DL.720p.Rus.Eng.mkv
Format : Matroska
Format version : Version 4 / Version 2
File size : 3.23 GiB
Duration : 1 h 46 min
Overall bit rate : 4 319 kb/s
Encoded date : UTC 2017-10-20 20:08:52
Writing application : mkvmerge v17.0.0 ('Be Ur Friend') 64-bit
Writing library : libebml v1.3.5 + libmatroska v1.4.8

Video
ID : 1
Format : AVC
Format/Info : Advanced Video Codec
Format profile : High@L4.1
Format settings : CABAC / 10 Ref Frames
Format settings, CABAC : Yes
Format settings, RefFrames : 10 frames
Codec ID : V_MPEG4/ISO/AVC
Duration : 1 h 46 min
Bit rate : 3 580 kb/s
Width : 1 280 pixels
Height : 536 pixels
Display aspect ratio : 2.40:1
Frame rate mode : Constant
Frame rate : 24.000 FPS
Color space : YUV
Chroma subsampling : 4:2:0
Bit depth : 8 bits
Scan type : Progressive
Bits/(Pixel*Frame) : 0.217
Stream size : 2.65 GiB (82%)
Writing library : x264 core 142 r2431+42 c69a006 tMod [8-bit@all X86_64]
Encoding settings : cabac=1 / ref=10 / deblock=1:-3:-3 / analyse=0x3:0x133 / me=umh / subme=7 / psy=1 / fade_compensate=0.00 / psy_rd=1.00:0.15 / mixed_ref=1 / me_range=48 / chroma_me=1 / trellis=2 / 8x8dct=1 / cqm=0 / deadzone=21,11 / fast_pskip=1 / chroma_qp_offset=-3 / threads=16 / lookahead_threads=4 / sliced_threads=0 / nr=0 / decimate=1 / interlaced=0 / bluray_compat=0 / constrained_intra=0 / fgo=0 / bframes=6 / b_pyramid=2 / b_adapt=2 / b_bias=0 / direct=3 / weightb=1 / open_gop=0 / weightp=2 / keyint=240 / keyint_min=24 / scenecut=40 / intra_refresh=0 / rc_lookahead=100 / rc=abr / mbtree=1 / bitrate=3580 / ratetol=1.0 / qcomp=0.60 / qpmin=0:0:0 / qpmax=69:69:69 / qpstep=4 / vbv_maxrate=50000 / vbv_bufsize=62500 / nal_hrd=none / filler=0 / ip_ratio=1.40 / aq=1:1.00 / aq-sensitivity=10.00 / aq-factor=1.00:1.00:1.00 / aq2=0 / aq3=0
Language : English
Default : Yes
Forced : No
Color range : Limited
Color primaries : BT.709
Transfer characteristics : BT.709
Matrix coefficients : BT.709

Audio #1
ID : 2
Format : AC-3
Format/Info : Audio Coding 3
Format settings, Endianness : Big
Codec ID : A_AC3
Duration : 1 h 46 min
Bit rate mode : Constant
Bit rate : 384 kb/s
Channel(s) : 6 channels
Channel positions : Front: L C R, Side: L R, LFE
Sampling rate : 48.0 kHz
Frame rate : 31.250 FPS (1536 SPF)
Bit depth : 16 bits
Compression mode : Lossy
Stream size : 294 MiB (9%)
Title : iTunes
Language : Russian
Service kind : Complete Main
Default : Yes
Forced : No

Audio #2
ID : 3
Format : AC-3
Format/Info : Audio Coding 3
Format settings, Endianness : Big
Codec ID : A_AC3
Duration : 1 h 46 min
Bit rate mode : Constant
Bit rate : 384 kb/s
Channel(s) : 6 channels
Channel positions : Front: L C R, Side: L R, LFE
Sampling rate : 48.0 kHz
Frame rate : 31.250 FPS (1536 SPF)
Bit depth : 16 bits
Compression mode : Lossy
Stream size : 294 MiB (9%)
Title : Original
Language : English
Service kind : Complete Main
Default : No
Forced : No

Menu
00:00:00.000 : en:1
00:03:19.000 : en:2
00:11:06.000 : en:3
00:19:35.000 : en:4
00:30:11.000 : en:5
00:37:36.000 : en:6
00:45:58.000 : en:7
00:52:39.000 : en:8
01:02:05.000 : en:9
01:11:18.000 : en:10
01:24:05.000 : en:11
01:31:19.000 : en:12
01:40:27.000 : en:13


_________________
Проголосуй за трекер Открытый торрент трекер - RUS-MEDIA.ORG

Проголосуй Открытый торрент трекер - RUS-MEDIA.ORG


Вернуться к началу
 Профиль Отправить личное сообщение  
 
   Похожие торренты   Автор   Торрент   Размер 
В этой теме нет новых непрочитанных сообщений. Ветреная река / Wind River [Боевик, Детектив, Криминал, 2017] WEB-DLRip-AVC, Dub [iTunes]

salma3

42 | 19

1.75 ГБ

В этой теме нет новых непрочитанных сообщений. Ветреная река / Wind River [Боевик, Детектив, Криминал, 2017] BDRip 720p, Dub [Лицензия]

salma3

0 | 0

4.36 ГБ

В этой теме нет новых непрочитанных сообщений. Ветреная река / Wind River [боевик, триллер, криминал, 2017] BDRip, Dub [iTunes]

salma3

49 | 5

1.41 ГБ

В этой теме нет новых непрочитанных сообщений. Ветреная река / Wind River [Боевик, Детектив, Криминал, 2017] BDRip-AVC, Dub [Лицензия]

salma3

0 | 0

2.18 ГБ

В этой теме нет новых непрочитанных сообщений. Ветреная река / Wind River [боевик, триллер, криминал, детектив, 2017] HDTVRip, Mvo

salma3

2178 | 236

1.46 ГБ

В этой теме нет новых непрочитанных сообщений. Ветреная река / Wind River [Боевик, Детектив, Криминал, 2017] BDRip-AVC, Dub [Лицензия]

salma3

6 | 1

1.46 ГБ

В этой теме нет новых непрочитанных сообщений. Ветреная река / Wind River [Боевик, триллер, криминал, 2017] BDRip 720p, Dub [Лицензия]

salma3

11 | 8

6.71 ГБ


СообщениеДобавлено: 21 окт 2017, 02:00 

Не в сети
Супермодератор
Аватара пользователя
Дата регистрации:
15 фев 2012, 16:44
Возраст: 28
Спасибо: 7199 / 2147
Сообщения: 64757
salma3 писал(а):
Re: Ветреная река / Wind River [Боевик, Детектив, Криминал, 2017] WEB-DLRip 720p, Dub [iTunes]

_________________
Проголосуй за трекер Открытый торрент трекер - RUS-MEDIA.ORG

Проголосуй Открытый торрент трекер - RUS-MEDIA.ORG


Вернуться к началу
 Профиль Отправить личное сообщение  
 
Начать новую тему Ответить на тему  [ Сообщений: 2 ] 




Для Мосгорсуда, Роскомнадзора и рекламодателей:: mosgorsud-torrent[собачка]yandex.ru
cron