Торрент файл
скачать торрент магнет ссылка Добавлен: 08 окт 2017, 14:42
Размер: 23.77 ГБ
Сидеров: 17
Личеров: 18
Статус: (salma3)
Автор

СообщениеДобавлено: 08 окт 2017, 14:42 

Не в сети
Супермодератор
Аватара пользователя
Дата регистрации:
15 фев 2012, 16:44
Возраст: 28
Спасибо: 7061 / 2147
Сообщения: 59169
Год выхода: 1985
Жанр: комедия
Режиссер: Альберт Брукс

В ролях: Альберт Брукс, Джули Хэгерти, Сильвия Фаррел, Тина Кинкейд, Кэнди Энн Браун, Мэгги Росвэлл, Ганс Вагнер, Брэнди Рубин, Майкл Грин, Роберт Хьюз, Рэйнольд Гидеон, Джон Ди Фуско, Майкл Корнелисон, Раду Гэйвор, Джон Рид, Пэт Гаррисон, Гэрри Маршалл

Описание: В тридцать лет муж и жена решают оставить работу, жить свободно и путешествовать по Америке в доме на колесах.



Страна: США
Продолжительность: 01:31:30
Перевод: Любительский (одноголосый закадровый) Олег Воротилин

Файл
Качество: BDRemux 1080р
Видео: AVC / 1920x1080 / 16:9 / 23.976 fps / 35685 Kbps / High@L4
Аудио 1: Rus / AC3 / 48.0 KHz / 1.0 / 192kbps / VO / О. Воротилин
Аудио 2: Rus / FLAC / 48.0 KHz / 1.0 / 678 kbps / 24 bit / VO / Олег Воротилин
Аудио 3: Eng / FLAC / 48.0 KHz / 1.0 / 631 kbps / 24 bit
Субтитры: русские beroal, английские

Общее
Уникальный идентификатор : 186942599359025534363766323304519455519 (0x8CA3D5C279C5FAF4B7932A9ECA88531F)
Полное имя : E:porvaliparusLost.in.America.1985.Criterion.Collection.BDRemux.1080p.mkv
Формат : Matroska
Версия формата : Version 4 / Version 2
Размер файла : 23,8 Гбайт
Продолжительность : 1 ч. 31 м.
Режим общего битрейта : Переменный
Общий поток : 37,2 Мбит/сек
Название фильма : Lost.in.America.1985.Criterion.Collection.BDRemux.1080p-porvaliparus
Дата кодирования : UTC 2017-09-15 09:05:39
Программа кодирования : mkvmerge v15.0.0 ('Duel with the Devil') 64-bit
Библиотека кодирования : libebml v1.3.5 + libmatroska v1.4.5

Видео
Идентификатор : 1
Формат : AVC
Формат/Информация : Advanced Video Codec
Профиль формата : High@L4.1
Настройки формата : CABAC / 4 Ref Frames
Параметр CABAC формата : Да
Параметр RefFrames формата : 4 кадра
Идентификатор кодека : V_MPEG4/ISO/AVC
Продолжительность : 1 ч. 31 м.
Вид битрейта : Переменный
Битрейт : 35,7 Мбит/сек
Максимальный битрейт : 37,0 Мбит/сек
Ширина : 1920 пикселей
Высота : 1080 пикселей
Соотношение сторон : 16:9
Режим частоты кадров : Постоянный
Частота кадров : 23,976 (24000/1001) кадра/сек
Цветовое пространство : YUV
Субдискретизация насыщенности : 4:2:0
Битовая глубина : 8 бит
Тип развёртки : Прогрессивная
Бит/(Пиксели*Кадры) : 0.718
Размер потока : 22,8 Гбайт (96%)
Заголовок : Lost.in.America.1985.Criterion.Collection.BDRemux.1080p
Default : Да
Forced : Нет

Аудио #1
Идентификатор : 2
Формат : AC-3
Формат/Информация : Audio Coding 3
Параметр Endianness формата : Big
Идентификатор кодека : A_AC3
Продолжительность : 1 ч. 31 м.
Вид битрейта : Постоянный
Битрейт : 192 Кбит/сек
Каналы : 1 канал
Расположение каналов : Front: C
Частота : 48,0 КГц
Частота кадров : 31,250 кадров/сек (1536 SPF)
Битовая глубина : 16 бит
Метод сжатия : С потерями
Размер потока : 126 Мбайт (1%)
Заголовок : VO [О. Воротилин]
Язык : Russian
Default : Да
Forced : Нет

Аудио #2
Идентификатор : 3
Формат : FLAC
Формат/Информация : Free Lossless Audio Codec
Идентификатор кодека : A_FLAC
Продолжительность : 1 ч. 31 м.
Вид битрейта : Переменный
Битрейт : 678 Кбит/сек
Каналы : 1 канал
Расположение каналов : Front: C
Частота : 48,0 КГц
Частота кадров : 11,719 кадров/сек (4096 SPF)
Битовая глубина : 24 бит
Размер потока : 444 Мбайт (2%)
Заголовок : VO [О. Воротилин]
Библиотека кодирования : libFLAC 20080709 (UTC 2008-07-09)
Язык : Russian
Default : Нет
Forced : Нет

Аудио #3
Идентификатор : 4
Формат : FLAC
Формат/Информация : Free Lossless Audio Codec
Идентификатор кодека : A_FLAC
Продолжительность : 1 ч. 31 м.
Вид битрейта : Переменный
Битрейт : 631 Кбит/сек
Каналы : 1 канал
Расположение каналов : Front: C
Частота : 48,0 КГц
Частота кадров : 11,719 кадров/сек (4096 SPF)
Битовая глубина : 24 бит
Размер потока : 413 Мбайт (2%)
Библиотека кодирования : libFLAC 20080709 (UTC 2008-07-09)
Язык : English
Default : Нет
Forced : Нет

Текст #1
Идентификатор : 5
Формат : UTF-8
Идентификатор кодека : S_TEXT/UTF8
Идентификатор кодека/Информация : UTF-8 Plain Text
Продолжительность : 1 ч. 27 м.
Битрейт : 122 бит/сек
ElementCount : 1223
Размер потока : 79,1 Кбайт (0%)
Заголовок : [beroal]
Язык : Russian
Default : Нет
Forced : Нет

Текст #2
Идентификатор : 6
Формат : UTF-8
Идентификатор кодека : S_TEXT/UTF8
Идентификатор кодека/Информация : UTF-8 Plain Text
Продолжительность : 1 ч. 27 м.
Битрейт : 103 бит/сек
ElementCount : 1569
Размер потока : 66,5 Кбайт (0%)
Язык : English
Default : Нет
Forced : Нет

Меню
00:00:00.000 : en:00:00:00.000
00:07:19.648 : en:00:07:19.648
00:13:36.357 : en:00:13:36.357
00:20:39.405 : en:00:20:39.405
00:23:40.628 : en:00:23:40.628
00:29:05.452 : en:00:29:05.452
00:31:32.307 : en:00:31:32.307
00:37:55.982 : en:00:37:55.982
00:43:24.685 : en:00:43:24.685
00:49:52.156 : en:00:49:52.156
00:58:38.473 : en:00:58:38.473
01:01:39.446 : en:01:01:39.446
01:07:45.103 : en:01:07:45.103
01:10:53.499 : en:01:10:53.499
01:18:04.680 : en:01:18:04.680
01:21:38.060 : en:01:21:38.060
01:25:14.359 : en:01:25:14.359


_________________
Проголосуй за трекер Открытый торрент трекер - RUS-MEDIA.ORG

Проголосуй Открытый торрент трекер - RUS-MEDIA.ORG


Вернуться к началу
 Профиль Отправить личное сообщение  
 
   Похожие торренты   Автор   Торрент   Размер 
В этой теме нет новых непрочитанных сообщений. Потерянные в Америке / Lost in America [комедия, 1985] BDRip, Avo

salma3

36 | 11

1.45 ГБ

В этой теме нет новых непрочитанных сообщений. Потерянные в Америке / Lost in America [комедия, 1985] BDRip-AVC, Avo

salma3

4 | 0

1.45 ГБ

В этой теме нет новых непрочитанных сообщений. Потерянные в Америке / Lost in America [комедия, 1985] BDRip 720p, Avo

salma3

1 | 13

6.72 ГБ

В этой теме нет новых непрочитанных сообщений. В ночи / Into the Night [драма, комедия, триллер, 1985] BDRemux 1080р, Mvo

salma3

27 | 15

27.16 ГБ

В этой теме нет новых непрочитанных сообщений. Письмо Брежневу / Letter to Brezhnev [драма, мелодрама, комедия, 1985] BDRemux 1080р, Avo

salma3

17 | 4

21.2 ГБ

В этой теме нет новых непрочитанных сообщений. Сделано в Америке / American Made [Боевик, триллер, драма, 2017] BDRemux 1080р, Dub [iTunes]

salma3

0 | 0

24.42 ГБ

В этой теме нет новых непрочитанных сообщений. Потрахаться в Америке / Laid in America [Комедия, 2016] BDRip-AVC, Dvo

salma3

316 | 57

1.91 ГБ


Начать новую тему Ответить на тему  [ 1 сообщение ] 




Для Мосгорсуда, Роскомнадзора и рекламодателей:: mosgorsud-torrent[собачка]yandex.ru
cron