Торрент файл
скачать торрент магнет ссылка Добавлен: 08 окт 2017, 11:20
Размер: 3.99 ГБ
Сидеров: 55
Личеров: 19
Статус: (salma3)
Автор

СообщениеДобавлено: 08 окт 2017, 11:20 

Не в сети
Супермодератор
Аватара пользователя
Дата регистрации:
15 фев 2012, 16:44
Возраст: 29
Спасибо: 7377 / 2147
Сообщения: 75752
Год выхода: 2004
Жанр: драма, мелодрама, комедия
Режиссер: Майк Баркер

В ролях: Хелен Хант, Скарлетт Йоханссон, Милена Вукотич, Стивен Кэмпбелл Мур, Марк Амберс, Роджер Хэммонд, Джон Стэндинг, Том Уилкинсон, Джорджиа Массетти, Диана Хардкэсл

О фильме:
Немолодая, но эффектная авантюристка миссис Эрлин приезжает из Америки в солнечный Рим, в надежде познакомиться с каким-нибудь состоятельным господином и успешно выйти за него замуж.



Страна: Великобритания, Италия, Испания, Люксембург, США
Продолжительность: 01:33:18
Перевод: Профессиональный (двухголосый, закадровый) R5 + Профессиональный (двухголосый, закадровый) КРТ

Файл
Качество: WEB-DLRip 720p
Формат: Matroska
Видео: 1280x720 at 23.976 fps, MPEG-4 AVC, ~4836 kbps avg
Аудио#1: Russian: AC3 Dolby Digital, 3/2 (L,C,R,l,r) + LFE ch, ~448 kbps avg |Двухголосый закадровый, R5|
Аудио#2: Ukrainian: 48 kHz, AC3 Dolby Digital, 2/0 (L,R) ch, ~192 kbps avg |Двухголосый закадровый, КРТ|
Аудио#3: English: 48 kHz, AC3 Dolby Digital, 3/2 (L,C,R,l,r) + LFE ch, ~640 kbps avg
Субтитры: Russian, English, French, Spanish, Portuguese, Dutch, Hebrew

***Релиз - whalekilla.

[*]Фильм снят по пьесе Оскара Уайлда «Веер леди Уиндемир».
Общее
Уникальный идентификатор : 193697858852331402895081126160366020108 (0x91B8D9C460C1624CA918C4F5BB77A60C)
Полное имя : A.Good.Woman.2004.WEB-DLRip.(720p).mkv
Формат : Matroska
Версия формата : Version 4 / Version 2
Размер файла : 3,99 Гбайт
Продолжительность : 1 ч. 33 м.
Общий поток : 6118 Кбит/сек
Название фильма : A Good Woman (2004)
Дата кодирования : UTC 2017-09-30 08:04:44
Программа кодирования : mkvmerge v6.9.1 ('Blue Panther') 64bit built on Apr 18 2014 18:23:38
Библиотека кодирования : libebml v1.3.0 + libmatroska v1.4.1

Видео
Идентификатор : 1
Формат : AVC
Формат/Информация : Advanced Video Codec
Профиль формата : High@L4.1
Параметр CABAC формата : Да
Параметр ReFrames формата : 9 кадров
Идентификатор кодека : V_MPEG4/ISO/AVC
Продолжительность : 1 ч. 33 м.
Битрейт : 4836 Кбит/сек
Ширина : 1280 пикселей
Высота : 720 пикселей
Соотношение сторон : 16:9
Режим частоты кадров : Постоянный
Частота кадров : 23,976 кадра/сек
Цветовое пространство : YUV
Субдискретизация насыщенности : 4:2:0
Битовая глубина : 8 бит
Тип развёртки : Прогрессивная
Бит/(Пиксели*Кадры) : 0.219
Размер потока : 3,07 Гбайт (77%)
Заголовок : A Good Woman (2004)
Библиотека кодирования : x264 core 148 r2744 b97ae06
Настройки программы : cabac=1 / ref=9 / deblock=1:-3:-3 / analyse=0x3:0x133 / me=umh / subme=11 / psy=1 / psy_rd=1.00:0.00 / mixed_ref=1 / me_range=32 / chroma_me=1 / trellis=2 / 8x8dct=1 / cqm=0 / deadzone=21,11 / fast_pskip=1 / chroma_qp_offset=-2 / threads=6 / lookahead_threads=1 / sliced_threads=0 / nr=0 / decimate=1 / interlaced=0 / bluray_compat=0 / constrained_intra=0 / bframes=16 / b_pyramid=2 / b_adapt=2 / b_bias=2 / direct=3 / weightb=1 / open_gop=0 / weightp=2 / keyint=240 / keyint_min=23 / scenecut=40 / intra_refresh=0 / rc_lookahead=60 / rc=2pass / mbtree=1 / bitrate=4836 / ratetol=1.0 / qcomp=0.60 / qpmin=0 / qpmax=69 / qpstep=4 / cplxblur=20.0 / qblur=0.5 / vbv_maxrate=50000 / vbv_bufsize=62500 / nal_hrd=none / filler=0 / ip_ratio=1.40 / aq=1:1.00
Язык : English
Default : Да
Forced : Нет

Аудио #1
Идентификатор : 2
Формат : AC-3
Формат/Информация : Audio Coding 3
Расширение режима : CM (complete main)
Параметр Endianness формата : Big
Идентификатор кодека : A_AC3
Продолжительность : 1 ч. 33 м.
Вид битрейта : Постоянный
Битрейт : 448 Кбит/сек
Каналы : 6 каналов
Расположение каналов : Front: L C R, Side: L R, LFE
Частота : 48,0 КГц
Битовая глубина : 16 бит
Метод сжатия : С потерями
Размер потока : 299 Мбайт (7%)
Заголовок : AC3, 6 ch, 448 Kbps, DVO
Язык : Russian
Default : Да
Forced : Нет

Аудио #2
Идентификатор : 3
Формат : AC-3
Формат/Информация : Audio Coding 3
Расширение режима : CM (complete main)
Параметр Endianness формата : Big
Идентификатор кодека : A_AC3
Продолжительность : 1 ч. 33 м.
Вид битрейта : Постоянный
Битрейт : 192 Кбит/сек
Каналы : 2 канала
Расположение каналов : Front: L R
Частота : 48,0 КГц
Битовая глубина : 16 бит
Метод сжатия : С потерями
Размер потока : 128 Мбайт (3%)
Заголовок : AC3, 2 ch, 192 Kbps, Українська
Язык : Ukrainian
Default : Нет
Forced : Нет

Аудио #3
Идентификатор : 4
Формат : AC-3
Формат/Информация : Audio Coding 3
Расширение режима : CM (complete main)
Параметр Endianness формата : Big
Идентификатор кодека : A_AC3
Продолжительность : 1 ч. 33 м.
Вид битрейта : Постоянный
Битрейт : 640 Кбит/сек
Каналы : 6 каналов
Расположение каналов : Front: L C R, Side: L R, LFE
Частота : 48,0 КГц
Битовая глубина : 16 бит
Метод сжатия : С потерями
Размер потока : 427 Мбайт (10%)
Заголовок : AC3, 6 ch, 640 Kbps, Original
Язык : English
Default : Нет
Forced : Нет

Текст #1
Идентификатор : 5
Формат : UTF-8
Идентификатор кодека : S_TEXT/UTF8
Идентификатор кодека/Информация : UTF-8 Plain Text
Язык : Russian
Default : Нет
Forced : Нет

Текст #2
Идентификатор : 6
Формат : UTF-8
Идентификатор кодека : S_TEXT/UTF8
Идентификатор кодека/Информация : UTF-8 Plain Text
Язык : English
Default : Нет
Forced : Нет

Текст #3
Идентификатор : 7
Формат : UTF-8
Идентификатор кодека : S_TEXT/UTF8
Идентификатор кодека/Информация : UTF-8 Plain Text
Язык : French
Default : Нет
Forced : Нет

Текст #4
Идентификатор : 8
Формат : UTF-8
Идентификатор кодека : S_TEXT/UTF8
Идентификатор кодека/Информация : UTF-8 Plain Text
Язык : Spanish
Default : Нет
Forced : Нет

Текст #5
Идентификатор : 9
Формат : UTF-8
Идентификатор кодека : S_TEXT/UTF8
Идентификатор кодека/Информация : UTF-8 Plain Text
Язык : Portuguese
Default : Нет
Forced : Нет

Текст #6
Идентификатор : 10
Формат : UTF-8
Идентификатор кодека : S_TEXT/UTF8
Идентификатор кодека/Информация : UTF-8 Plain Text
Язык : Dutch
Default : Нет
Forced : Нет

Текст #7
Идентификатор : 11
Формат : UTF-8
Идентификатор кодека : S_TEXT/UTF8
Идентификатор кодека/Информация : UTF-8 Plain Text
Язык : Hebrew
Default : Нет
Forced : Нет


_________________
Проголосуй за трекер Открытый торрент трекер - RUS-MEDIA.ORG

Проголосуй Открытый торрент трекер - RUS-MEDIA.ORG


Вернуться к началу
 Профиль Отправить личное сообщение  
 
   Похожие торренты   Автор   Торрент   Размер 
В этой теме нет новых непрочитанных сообщений. Фатальная женщина / Смертоносная женщина / Lethal Woman / The Most Dangerous Woman Alive [Триллер, боевик, драма, криминал, 1988] VHSRip, Avo

salma3

95 | 17

706.56 МБ

В этой теме нет новых непрочитанных сообщений. Хорошая борьба / The Good Fight [S01] [драма, 2017] WEB-DLRip, Mvo [NewStudio]

salma3

0 | 0

5.76 ГБ

В этой теме нет новых непрочитанных сообщений. Хорошая девочка / The Good Girl [драма, мелодрама, 2002] DVDRip, Mvo

salma3

27 | 17

1.46 ГБ

В этой теме нет новых непрочитанных сообщений. Женщина в красном / The Woman in Red [комедия, мелодрама, 1984] BDRemux 1080р, Dub

salma3

0 | 0

17.02 ГБ

В этой теме нет новых непрочитанных сообщений. Опасная женщина / A Dangerous Woman [драма, мелодрама, 1993] SATRip, Dvo [НТВ+]

salma3

84 | 44

1.32 ГБ

В этой теме нет новых непрочитанных сообщений. Опасная женщина / A Dangerous Woman [драма, мелодрама, 1993] HDTV 1080i, Dvo

salma3

0 | 0

3.75 ГБ

В этой теме нет новых непрочитанных сообщений. Мужчина и женщина / A Man and A Woman (Ли Юн-ги / Lee Yoon Ki) [2016г., Южная Корея, драма, мелодрама, HDRip] DVO

Alfredovich

17 | 5

1.42 ГБ


Начать новую тему Ответить на тему  [ 1 сообщение ] 




Для Мосгорсуда, Роскомнадзора и рекламодателей:: mosgorsud-torrent[собачка]yandex.ru
cron