Торрент файл
скачать торрент магнет ссылка Добавлен: 05 окт 2017, 20:03
Размер: 3.62 ГБ
Сидеров: 48
Личеров: 16
Статус: (salma3)
Автор

СообщениеДобавлено: 05 окт 2017, 20:03 

Не в сети
Супермодератор
Аватара пользователя
Дата регистрации:
15 фев 2012, 16:44
Возраст: 29
Спасибо: 7339 / 2147
Сообщения: 75613
Год выхода: 2006
Жанр: драма, комедия, биография
Режиссер: Боб Бэлабан

В ролях: Рэйф Файнс, Моник Кёрнен, Сьюзен Сарандон, Питер Эшер, Дон Харви, Кристофер Бауэр, Мэрлин Торрес, Ник Рольф, Джеймс Ребхорн, Доминик Данн

О фильме:
Закулисная история о последних годах жизни табачной миллиардерши Дорис Дьюк (1912-1993) и её отношениях с преданным дворецким Бернаром Лафферти. Героиня фильма несчастлива, несмотря на свое огромное богатство: Дорис Дьюк унаследовала «табачную империю» и одно время была самой богатой женщиной в мире. За плечами три неудачных брака и многочисленные скандальные «разборки» с охотниками за ее состоянием. Отныне Дорис живет одна и очень уединенно. Рядом с ней — дворецкий-ирландец, человек нетрадиционной ориентации. Ему она доверяет и именно ему завещает ежегодную ренту в размере почти полумиллиона долларов. Случай из ряда вон выходящий. Как такое могло случиться? Наследники еще долго не могут смириться с потерей богатства, пытаясь оспорить столь странное завещание…



Страна: США, Великобритания
Продолжительность: 01:42:52
Перевод: Профессиональный [многоголосый]

Файл
Кодек: h.264
Качество: WEB-DLRip 720p
Видео: MPEG-4 AVC, 4665 Кбит/с, 1280x720, 23,976 кадр/с
Звук1: Русский (AC3, 2 ch, 192 Кбит/с) / Профессиональный многоголосый
Звук2: Английский (AC3, 2 ch, 192 Кбит/с)
Субтитры: Английские

Семпл

За источник спасибо MGK
Главы были взяты с DVD.
За дорожку №1 спасибо Temperest
General
Unique ID : 227930315558407969398726297806080750420 (0xAB79C830F080CC5EA06DF894FCAEB354)
Complete name : D:uTorrentBernard.i.Doris.2006.WEB-DLRip.720p.MediaClub.mkv
Format : Matroska
Format version : Version 4 / Version 2
File size : 3.62 GiB
Duration : 1 h 42 min
Overall bit rate : 5 035 kb/s
Encoded date : UTC 2017-10-01 11:02:09 / UTC 2017-09-30T11:37:30Z
Writing application : mkvmerge v16.0.0 ('Protest') 64-bit
Writing library : libebml v1.3.5 + libmatroska v1.4.8 / Lavf57.7.2

Video
ID : 1
Format : AVC
Format/Info : Advanced Video Codec
Format profile : High@L4.1
Format settings, CABAC : Yes
Format settings, ReFrames : 8 frames
Codec ID : V_MPEG4/ISO/AVC
Duration : 1 h 42 min
Bit rate : 4 665 kb/s
Width : 1 280 pixels
Height : 720 pixels
Display aspect ratio : 16:9
Frame rate mode : Constant
Frame rate : 23.976 (24000/1001) FPS
Color space : YUV
Chroma subsampling : 4:2:0
Bit depth : 8 bits
Scan type : Progressive
Bits/(Pixel*Frame) : 0.211
Stream size : 3.27 GiB (90%)
Title : WEB-DLRip by Silverok
Writing library : x264 core 148 r2708 86b7198
Encoding settings : cabac=1 / ref=8 / deblock=1:-3:-3 / analyse=0x3:0x113 / me=umh / subme=11 / psy=1 / psy_rd=1.00:0.00 / mixed_ref=1 / me_range=32 / chroma_me=1 / trellis=2 / 8x8dct=1 / cqm=0 / deadzone=21,11 / fast_pskip=1 / chroma_qp_offset=-2 / threads=12 / lookahead_threads=1 / sliced_threads=0 / nr=0 / decimate=0 / interlaced=0 / bluray_compat=0 / constrained_intra=0 / bframes=8 / b_pyramid=2 / b_adapt=1 / b_bias=0 / direct=1 / weightb=1 / open_gop=0 / weightp=2 / keyint=240 / keyint_min=24 / scenecut=40 / intra_refresh=0 / rc_lookahead=40 / rc=2pass / mbtree=1 / bitrate=4665 / ratetol=1.0 / qcomp=0.60 / qpmin=0 / qpmax=69 / qpstep=4 / cplxblur=20.0 / qblur=0.5 / vbv_maxrate=62500 / vbv_bufsize=78125 / nal_hrd=none / filler=0 / ip_ratio=1.40 / aq=1:1.00
Default : Yes
Forced : No
Color range : Limited
Color primaries : BT.709
Transfer characteristics : BT.709
Matrix coefficients : BT.709
Statistics Tags Issue : mkvmerge v16.0.0 ('Protest') 64-bit 2017-10-01 11:02:09 / mkvmerge v16.0.0 ('Protest') 64-bit 2017-10-01 11:02:09 / UTC 2017-09-30T11:37:30Z
FromStats_BitRate : 4660310
FromStats_Duration : 01:42:47.870000000
FromStats_FrameCount : 147881
FromStats_StreamSize : 3593023894

Audio #1
ID : 2
Format : AC-3
Format/Info : Audio Coding 3
Format settings, Endianness : Big
Codec ID : A_AC3
Duration : 1 h 42 min
Bit rate mode : Constant
Bit rate : 192 kb/s
Channel(s) : 2 channels
Channel positions : Front: L R
Sampling rate : 48.0 kHz
Frame rate : 31.250 FPS (1536 spf)
Bit depth : 16 bits
Compression mode : Lossy
Delay relative to video : -4 s 588 ms
Stream size : 141 MiB (4%)
Title : Многоголосый закадровый
Language : Russian
Service kind : Complete Main
Default : Yes
Forced : No
Statistics Tags Issue : mkvmerge v16.0.0 ('Protest') 64-bit 2017-10-01 11:02:09 / mkvmerge v16.0.0 ('Protest') 64-bit 2017-10-01 11:02:09 / UTC 2017-09-30T11:37:30Z
FromStats_BitRate : 189939
FromStats_Duration : 01:41:46.144000000
FromStats_FrameCount : 188769
FromStats_StreamSize : 144974592

Audio #2
ID : 3
Format : AC-3
Format/Info : Audio Coding 3
Format settings, Endianness : Big
Codec ID : A_AC3
Duration : 1 h 42 min
Bit rate mode : Constant
Bit rate : 192 kb/s
Channel(s) : 2 channels
Channel positions : Front: L R
Sampling rate : 48.0 kHz
Frame rate : 31.250 FPS (1536 spf)
Bit depth : 16 bits
Compression mode : Lossy
Delay relative to video : -4 s 588 ms
Stream size : 141 MiB (4%)
Language : English
Service kind : Complete Main
Default : No
Forced : No
Statistics Tags Issue : mkvmerge v16.0.0 ('Protest') 64-bit 2017-10-01 11:02:09 / mkvmerge v16.0.0 ('Protest') 64-bit 2017-10-01 11:02:09 / UTC 2017-09-30T11:37:30Z
FromStats_BitRate : 189939
FromStats_Duration : 01:41:46.144000000
FromStats_FrameCount : 188769
FromStats_StreamSize : 144974592

Text
ID : 4
Format : ASS
Codec ID : S_TEXT/ASS
Codec ID/Info : Advanced Sub Station Alpha
Compression mode : Lossless
Language : English
Default : No
Forced : No
Statistics Tags Issue : mkvmerge v16.0.0 ('Protest') 64-bit 2017-10-01 11:02:09 / mkvmerge v16.0.0 ('Protest') 64-bit 2017-10-01 11:02:09 / UTC 2017-09-30T11:37:30Z
FromStats_BitRate : 104
FromStats_Duration : 01:34:15.872000000
FromStats_FrameCount : 1318
FromStats_StreamSize : 74177

Menu
00:00:04.588 : :Good Evening, Ms. Duke
00:11:07.709 : :Other People's Worlds
00:20:56.130 : :A Jigsaw Puzzle
00:29:55.168 : :New Experiences
00:41:59.017 : :The Great Mandala
00:49:09.238 : :A Real Crowd Pleaser
01:00:40.887 : :A Valuable Commodity
01:08:35.820 : :Poached
01:17:19.593 : :Above All Others
01:25:18.697 : :From the Base to the Tip
01:32:29.794 : :Last Will and Testament
01:39:46.731 : :Credits


Релиз от: | Silverok


_________________
Проголосуй за трекер Открытый торрент трекер - RUS-MEDIA.ORG

Проголосуй Открытый торрент трекер - RUS-MEDIA.ORG


Вернуться к началу
 Профиль Отправить личное сообщение  
 
   Похожие торренты   Автор   Торрент   Размер 
В этой теме нет новых непрочитанных сообщений. Здравствуйте, меня зовут Дорис / Hello, My Name Is Doris [Драма, мелодрама, комедия, 2015] WEB-DLRip, Mvo [iTunes]

salma3

13 | 0

1.46 ГБ

В этой теме нет новых непрочитанных сообщений. Здравствуйте, меня зовут Дорис / Hello, My Name Is Doris [Драма, Мелодрама, Комедия, 2015] BDRip 720p, Mvo

salma3

48 | 3

3.86 ГБ

В этой теме нет новых непрочитанных сообщений. Счастье / Glück (Дорис Дёрри / Doris Dörrie) [2012г., Германия, драма, HDRip] sub

Alfredovich

26 | 0

1.36 ГБ

В этой теме нет новых непрочитанных сообщений. Стать Бондом / Becoming Bond [Комедия, биография, 2017] WEB-DLRip 720p, Mvo

salma3

322 | 47

2.92 ГБ

В этой теме нет новых непрочитанных сообщений. Сарбджит / Sarbjit [Драма, биография, история, 2016] WEB-DLRip 720p, Dvo

salma3

22 | 7

3 ГБ

В этой теме нет новых непрочитанных сообщений. Сладкие грезы / Sweet Dreams [Драма, музыка, биография, 1985] WEB-DLRip 720p, Dub

salma3

0 | 0

5.2 ГБ

В этой теме нет новых непрочитанных сообщений. Андердог / Sommeren '92 [Драма, комедия, биография, спорт, 2015] WEB-DLRip, Dub [iTunes]

salma3

202 | 16

745.73 МБ


Начать новую тему Ответить на тему  [ 1 сообщение ] 




Для Мосгорсуда, Роскомнадзора и рекламодателей:: mosgorsud-torrent[собачка]yandex.ru
cron