Торрент файл
скачать торрент магнет ссылка Добавлен: 03 окт 2017, 20:11
Размер: 10.1 ГБ
Сидеров: 14
Личеров: 6
Статус: (salma3)
Автор

СообщениеДобавлено: 03 окт 2017, 20:11 

В сети
Супермодератор
Аватара пользователя
Дата регистрации:
15 фев 2012, 16:44
Возраст: 29
Спасибо: 7333 / 2147
Сообщения: 73968
Год выхода: 1971
Жанр: боевик, драма, вестерн
Режиссер: Дон Медфорд
В ролях: Джин Хэкмен, Оливер Рид, Кендис Берген, Саймон Окланд, Рональд Ховард, Митч Райн, Уильям Ватсон, Бернард Кей, Л. К. Джонс, Г. Д. Спрэдлин, Рэйфорд Барнс и др.

Описание: Лихой разбойник Фрэнк Колдер крадет жену богача Брэндта Ругера — Мелиссу и увозит в пыльные прерии Дикого Запада. Строптивая девушка очаровывает бандита, и они страстно влюбляются друг в друга. Тем временем, Ругер идет по пятам и решает хитроумным образом истребить банду, охотясь на людей, точно на дикого зверя. Жестокости и хитрости этого охотника за головами нет предела. Он готов завладеть «добычей» даже ценою собственной жизни…



Страна: США, Великобритания
Продолжительность: 01:50:57
Перевод 1: Профессиональный (многоголосый закадровый) Настроение Video
Перевод 2: Профессиональный (двухголосый закадровый) НТВ+ (присутствует одна вставка с многоголоски)
Субтитры: английские


Файл
Качество: BDRip 720p
Видео: AVC / 1280x690 / 1.85:1 / 23.976 fps / 12000 Kbps / High@L4.1
Аудио 1: Rus: AC3 / 48.0 KHz / 5.1 / 384 kbps / MVO / Настроение Video
Аудио 2: Rus: AC3 / 48.0 KHz / 2.0 / 192 kbps / DVO / НТВ+
Аудио 3: Eng: FLAC / 48.0 KHz / 2.0 / 197 kbps / 16 bit
Аудио 4: Eng: AC3 / 48.0 KHz / 2.0 / 256 kbps / Commentary by Film Historians Howard S. Berger and Nathaniel

Общее
Уникальный идентификатор : 215610073566780199921650092378922408874 (0xA234FD5CF0449B36BFE63F7805FFDBAA)
Полное имя : The.Hunting.Party.1971.BDRip.720p.mkv
Формат : Matroska
Версия формата : Version 4 / Version 2
Размер файла : 10,1 Гбайт
Продолжительность : 1 ч. 50 м.
Режим общего битрейта : Переменный
Общий поток : 13,0 Мбит/сек
Название фильма : The.Hunting.Party.1971.BDRip.720p-porvaliparus
Дата кодирования : UTC 2017-08-21 02:01:09
Программа кодирования : mkvmerge v15.0.0 ('Duel with the Devil') 64-bit
Библиотека кодирования : libebml v1.3.5 + libmatroska v1.4.5
Видео
Идентификатор : 1
Формат : AVC
Формат/Информация : Advanced Video Codec
Профиль формата : High@L4.1
Параметр CABAC формата : Да
Параметр RefFrames формата : 9 кадров
Идентификатор кодека : V_MPEG4/ISO/AVC
Продолжительность : 1 ч. 50 м.
Битрейт : 12,0 Мбит/сек
Ширина : 1280 пикселей
Высота : 690 пикселей
Соотношение сторон : 1,85:1
Режим частоты кадров : Постоянный
Частота кадров : 23,976 (24000/1001) кадра/сек
Цветовое пространство : YUV
Субдискретизация насыщенности : 4:2:0
Битовая глубина : 8 бит
Тип развёртки : Прогрессивная
Бит/(Пиксели*Кадры) : 0.567
Размер потока : 9,30 Гбайт (92%)
Заголовок : The.Hunting.Party.1971.BDRip.720p
Библиотека кодирования : x264 core 152 r2851 ba24899
Настройки программы : cabac=1 / ref=9 / deblock=1:-3:-3 / analyse=0x3:0x133 / me=umh / subme=11 / psy=1 / psy_rd=1.00:0.10 / mixed_ref=1 / me_range=32 / chroma_me=1 / trellis=2 / 8x8dct=1 / cqm=0 / deadzone=21,11 / fast_pskip=0 / chroma_qp_offset=-3 / threads=12 / lookahead_threads=3 / sliced_threads=0 / nr=0 / decimate=1 / interlaced=0 / bluray_compat=0 / constrained_intra=0 / bframes=10 / b_pyramid=2 / b_adapt=2 / b_bias=0 / direct=3 / weightb=1 / open_gop=0 / weightp=2 / keyint=250 / keyint_min=23 / scenecut=40 / intra_refresh=0 / rc_lookahead=40 / rc=2pass / mbtree=0 / bitrate=12000 / ratetol=1.0 / qcomp=0.60 / qpmin=0 / qpmax=69 / qpstep=4 / cplxblur=20.0 / qblur=0.5 / vbv_maxrate=50000 / vbv_bufsize=62500 / nal_hrd=none / filler=0 / ip_ratio=1.40 / pb_ratio=1.30 / aq=1:0.80
Default : Да
Forced : Нет

Аудио #1
Идентификатор : 2
Формат : AC-3
Формат/Информация : Audio Coding 3
Параметр Endianness формата : Big
Идентификатор кодека : A_AC3
Продолжительность : 1 ч. 50 м.
Вид битрейта : Постоянный
Битрейт : 384 Кбит/сек
Каналы : 6 каналов
Расположение каналов : Front: L C R, Side: L R, LFE
Частота : 48,0 КГц
Частота кадров : 31,250 кадров/сек (1536 SPF)
Битовая глубина : 16 бит
Метод сжатия : С потерями
Размер потока : 305 Мбайт (3%)
Заголовок : MVO [Настроение Video]
Язык : Russian
Default : Да
Forced : Нет

Аудио #2
Идентификатор : 3
Формат : AC-3
Формат/Информация : Audio Coding 3
Параметр Endianness формата : Big
Идентификатор кодека : A_AC3
Продолжительность : 1 ч. 50 м.
Вид битрейта : Постоянный
Битрейт : 192 Кбит/сек
Каналы : 2 канала
Расположение каналов : Front: L R
Частота : 48,0 КГц
Частота кадров : 31,250 кадров/сек (1536 SPF)
Битовая глубина : 16 бит
Метод сжатия : С потерями
Размер потока : 152 Мбайт (1%)
Заголовок : DVO [НТВ+]
Язык : Russian
Default : Нет
Forced : Нет

Аудио #3
Идентификатор : 4
Формат : FLAC
Формат/Информация : Free Lossless Audio Codec
Идентификатор кодека : A_FLAC
Продолжительность : 1 ч. 50 м.
Вид битрейта : Переменный
Битрейт : 197 Кбит/сек
Каналы : 2 канала
Расположение каналов : Front: L R
Частота : 48,0 КГц
Частота кадров : 11,719 кадров/сек (4096 SPF)
Битовая глубина : 16 бит
Размер потока : 157 Мбайт (2%)
Библиотека кодирования : libFLAC 20080709 (UTC 2008-07-09)
Язык : English
Default : Нет
Forced : Нет

Аудио #4
Идентификатор : 5
Формат : AC-3
Формат/Информация : Audio Coding 3
Параметр Endianness формата : Big
Идентификатор кодека : A_AC3
Продолжительность : 1 ч. 50 м.
Вид битрейта : Постоянный
Битрейт : 256 Кбит/сек
Каналы : 2 канала
Расположение каналов : Front: L R
Частота : 48,0 КГц
Частота кадров : 31,250 кадров/сек (1536 SPF)
Битовая глубина : 16 бит
Метод сжатия : С потерями
Размер потока : 203 Мбайт (2%)
Заголовок : Commentary by Film Historians Howard S. Berger and Nathaniel Thompson
Язык : English
Default : Нет
Forced : Нет

Текст
Идентификатор : 6
Формат : UTF-8
Идентификатор кодека : S_TEXT/UTF8
Идентификатор кодека/Информация : UTF-8 Plain Text
Продолжительность : 1 ч. 45 м.
Битрейт : 22 бит/сек
ElementCount : 635
Размер потока : 17,3 Кбайт (0%)
Язык : English
Default : Нет
Forced : Нет

Меню
00:00:00.000 : en:Chapter 1
00:12:54.440 : en:Chapter 2
00:24:00.814 : en:Chapter 3
00:37:43.595 : en:Chapter 4
00:53:50.018 : en:Chapter 5
01:10:49.245 : en:Chapter 6
01:22:12.719 : en:Chapter 7
01:35:47.575 : en:Chapter 8


_________________
Проголосуй за трекер Открытый торрент трекер - RUS-MEDIA.ORG

Проголосуй Открытый торрент трекер - RUS-MEDIA.ORG


Вернуться к началу
 Профиль Отправить личное сообщение  
 
   Похожие торренты   Автор   Торрент   Размер 
В этой теме нет новых непрочитанных сообщений. Охота / The Hunting Party [боевик, драма, вестерн, 1971] BDRip, Mvo

salma3

127 | 17

1.45 ГБ

В этой теме нет новых непрочитанных сообщений. Охота / The Hunting Party [боевик, драма, вестерн, 1971] BDRip 1080p, Mvo

salma3

45 | 30

9.37 ГБ

В этой теме нет новых непрочитанных сообщений. Охота Ханта / The Hunting Party [Триллер, комедия, военный, 2007] BDRip 720p, Dub

salma3

33 | 20

4.36 ГБ

В этой теме нет новых непрочитанных сообщений. Охота / Jagveld / Hunting Emma [Боевик, триллер, 2018] HDRip 720p, Mvo

salma3

1276 | 262

2.42 ГБ

В этой теме нет новых непрочитанных сообщений. Крикуны 2: Охота / Screamers 2: The Hunting [ужасы, фантастика, боевик, 2009] BDRip-AVC, Mvo

salma3

242 | 47

744.64 МБ

В этой теме нет новых непрочитанных сообщений. Крикуны 2: Охота / Screamers 2: The Hunting [ужасы, фантастика, боевик, триллер, 2009] BDRip 720, Mvo+Sub

salma3

37 | 11

3.62 ГБ

В этой теме нет новых непрочитанных сообщений. Крикуны 2: Охота / Screamers 2: The Hunting [ужасы, фантастика, боевик, триллер, 2009] BDRip 1080p, Mvo+Sub

salma3

170 | 96

7.94 ГБ


Начать новую тему Ответить на тему  [ 1 сообщение ] 




Для Мосгорсуда, Роскомнадзора и рекламодателей:: mosgorsud-torrent[собачка]yandex.ru
cron