Торрент файл
скачать торрент магнет ссылка Добавлен: 02 окт 2017, 20:41
Размер: 3.19 ГБ
Сидеров: 892
Личеров: 55
Статус: (salma3)
Автор

СообщениеДобавлено: 02 окт 2017, 20:41 

Не в сети
Супермодератор
Аватара пользователя
Дата регистрации:
15 фев 2012, 16:44
Возраст: 28
Спасибо: 6912 / 2147
Сообщения: 52394
Год выхода: 2017
Жанр: триллер
Режиссер: Майк Флэнеган

В ролях: Карла Гуджино, Генри Томас, Брюс Гринвуд, Карел Стрёйкен, Кейт Сигел, Кьяра Аурелия, Stu Cookson, Tom Glynn, Кимберли Баттиста, Натали Роерс

О фильме:
Экранизация одноименного романа Стивена Кинга. После того, как ее муж падает с сердечным приступом в разгаре интимной игры, молодая женщина остается прикованной к кровати. Но ее одиночество будет недолгим. Все страхи, которые она когда-либо испытывала в жизни, вернутся в одночасье в уединенный дом, мгновенно превратившийся в зловещую камеру пыток.



Страна: США
Продолжительность: 01:43:10
Перевод: любительский [многоголосный, закадровый] [@MUZOBOZ@]

Файл
Кодек: H.264
Качество: WEBRip 720p
Видео: AVC, 1280x536 (2.40:1), 23.976 fps ~ 3955 Kbps
Звук: AC3, 48 KHz, 2 ch ~ 384 Kb/s

Семпл

Общее
Уникальный идентификатор : 245983885536942078540698512701556270933 (0xB90EC5E9D4CD97E9BAB6CD4A410C2755)
Полное имя : Q:TorFGeralds.game.2017.720p.mkv
Формат : Matroska
Версия формата : Version 2
Размер файла : 3,19 Гбайт
Продолжительность : 1 ч. 43 м.
Режим общего битрейта : Переменный
Общий поток : 4429 Кбит/сек
Дата кодирования : UTC 2017-10-02 11:44:44
Программа кодирования : mkvmerge v5.4.0 ('Piper') built on Mar 10 2012 13:34:39
Библиотека кодирования : libebml v1.2.3 + libmatroska v1.3.0
DURATION : 01:45:12.064000000
NUMBER_OF_FRAMES : 197252
NUMBER_OF_BYTES : 302979072
_STATISTICS_WRITING_APP : mkvmerge v8.3.0 ('Over the Horizon') 64bit
_STATISTICS_WRITING_DATE_UTC : 2017-10-01 12:14:20
_STATISTICS_TAGS : BPS DURATION NUMBER_OF_FRAMES NUMBER_OF_BYTES

Видео
Идентификатор : 1
Формат : AVC
Формат/Информация : Advanced Video Codec
Профиль формата : High@L4.1
Параметр CABAC формата : Да
Параметр ReFrames формата : 12 кадров
Идентификатор кодека : V_MPEG4/ISO/AVC
Продолжительность : 1 ч. 43 м.
Вид битрейта : Переменный
Битрейт : 3957 Кбит/сек
Максимальный битрейт : 4500 Кбит/сек
Ширина : 1280 пикселей
Высота : 536 пикселей
Соотношение сторон : 2,40:1
Частота кадров : 23,976 кадра/сек
Стандарт вещания : Component
Цветовое пространство : YUV
Субдискретизация насыщенности : 4:2:0
Битовая глубина : 8 бит
Тип развёртки : Прогрессивная
Бит/(Пиксели*Кадры) : 0.241
Размер потока : 2,85 Гбайт (89%)
Язык : English
Default : Да
Forced : Нет
Основные цвета : BT.709-5, BT.1361, IEC 61966-2-4, SMPTE RP177
Характеристики трансфера : BT.709-5, BT.1361
Коэффициенты матрицы : BT.709-5, BT.1361, IEC 61966-2-4 709, SMPTE RP177

Аудио
Идентификатор : 2
Формат : AC-3
Формат/Информация : Audio Coding 3
Расширение режима : CM (complete main)
Идентификатор кодека : A_AC3
Продолжительность : 1 ч. 43 м.
Вид битрейта : Постоянный
Битрейт : 384 Кбит/сек
Каналы : 2 канала
Расположение каналов : Front: L R
Частота : 48,0 КГц
Битовая глубина : 16 бит
Метод сжатия : С потерями
Задержка видео : 2 мс.
Размер потока : 283 Мбайт (9%)
Заголовок : DER'MOVOZ
Язык : Russian
Default : Да
Forced : Нет




_________________
Проголосуй за трекер Открытый торрент трекер - RUS-MEDIA.ORG

Проголосуй Открытый торрент трекер - RUS-MEDIA.ORG



реклама партнёра


Вернуться к началу
 Профиль Отправить личное сообщение  
 
   Похожие торренты   Автор   Торрент   Размер 
В этой теме нет новых непрочитанных сообщений. Игра Джеральда / Gerald's Game [триллер, 2017] WEBRip, Mvo

salma3

974 | 54

1.37 ГБ

В этой теме нет новых непрочитанных сообщений. Игра Джеральда / Gerald's Game [ужасы, триллер, 2017] WEBRip, Mvo [FocusStudio]

salma3

332 | 47

1.46 ГБ

В этой теме нет новых непрочитанных сообщений. Игра Кауфмана / Kaufman's Game [триллер, криминал, 2017] WEBRip, Mvo

salma3

118 | 39

1.34 ГБ

В этой теме нет новых непрочитанных сообщений. Игра у пропасти / The Precipice Game [триллер, ужасы, 2016] WEBRip-AVC, Dvo

salma3

116 | 3

1.16 ГБ

В этой теме нет новых непрочитанных сообщений. Честная игра / Fair Game [боевик, триллер, 1995] WEB-DL 720p, Dub

salma3

8 | 11

4.45 ГБ

В этой теме нет новых непрочитанных сообщений. Игра без правил / Fair Game [триллер, драма, биография, 2010] BDRip 720p, Dub+Sub

salma3

39 | 18

4.85 ГБ

В этой теме нет новых непрочитанных сообщений. Игра для иммигрантов / Immigration Game [боевик, триллер, драма, 2017] WEBDLRip, Mvo

salma3

140 | 38

1.37 ГБ


Начать новую тему Ответить на тему  [ 1 сообщение ] 




Для Мосгорсуда, Роскомнадзора и рекламодателей:: mosgorsud-torrent[собачка]yandex.ru
cron