Торрент файл
скачать торрент магнет ссылка Добавлен: 02 окт 2017, 16:52
Размер: 4.07 ГБ
Сидеров: 48
Личеров: 15
Автор

СообщениеДобавлено: 02 окт 2017, 16:52 

Не в сети
Супермодератор
Аватара пользователя
Дата регистрации:
15 фев 2012, 16:44
Возраст: 28
Спасибо: 6644 / 2146
Сообщения: 45909
Год выхода: 1980
Жанр: комедия
Режиссер: Пьер Ришар

В ролях: Пьер Ришар, Альдо Маччоне, Валери Мересс, Даниэль Миназзоли, Аннет Пуавр, Мари-Кристин Дезэй, Жерар Эрнандес, Франка Валери, Анри Гарсен, Фридерик Ардити

О фильме:
Тихий литературный «негр» в один прекрасный день, в следствие ошибки, получает заманчивое предложение — поработать в Тунисе. Отправляясь туда вместе с новым знакомым, итальянским актером, он и не подозревает, какие приключения ждут его в этом путешествии…



Страна: Франция
Продолжительность: 01:34:39
Перевод: Профессиональный (многоголосый, закадровый) OPT

Файл
Качество: BDRip 720p
Формат: Matroska
Видео: 1196x720 at 24.000 fps, x264@L4.1, ~5578 kbps avg
Аудио#1: Russian: 48 kHz, AC3, 2/0 (L,R) ch, ~256 kbps avg |Многоголосый закадровый, OPT|
Аудио#2: French: 48 kHz, AC3, 2/0 (L,R) ch, ~192 kbps avg
Субтитры: None

***Релиз - msltel.

Общее
Уникальный идентификатор : 240406103477180733714596134103776183307 (0xB4DC88068DFCEA7086F8481B9F1B440B)
Полное имя : Это не я, это - он.1980.BDRip.720p by msltel.mkv
Формат : Matroska
Версия формата : Version 4 / Version 2
Размер файла : 4,07 Гбайт
Продолжительность : 1 ч. 34 м.
Общий поток : 6148 Кбит/сек
Название фильма : Rip by msltel
Дата кодирования : UTC 2017-10-02 03:50:13
Программа кодирования : mkvmerge v8.2.0 ('World of Adventure') 64bit
Библиотека кодирования : libebml v1.3.1 + libmatroska v1.4.2

Видео
Идентификатор : 1
Формат : AVC
Формат/Информация : Advanced Video Codec
Профиль формата : High@L4.1
Параметр CABAC формата : Да
Параметр ReFrames формата : 9 кадров
Идентификатор кодека : V_MPEG4/ISO/AVC
Продолжительность : 1 ч. 34 м.
Битрейт : 5578 Кбит/сек
Ширина : 1196 пикселей
Высота : 720 пикселей
Соотношение сторон : 1,661
Режим частоты кадров : Постоянный
Частота кадров : 24,000 кадра/сек
Цветовое пространство : YUV
Субдискретизация насыщенности : 4:2:0
Битовая глубина : 8 бит
Тип развёртки : Прогрессивная
Бит/(Пиксели*Кадры) : 0.270
Размер потока : 3,69 Гбайт (91%)
Библиотека кодирования : x264 core 146 r2538 121396c
Настройки программы : cabac=1 / ref=9 / deblock=1:-3:-2 / analyse=0x3:0x113 / me=umh / subme=11 / psy=1 / psy_rd=1.00:0.15 / mixed_ref=1 / me_range=32 / chroma_me=1 / trellis=2 / 8x8dct=1 / cqm=0 / deadzone=21,11 / fast_pskip=0 / chroma_qp_offset=-3 / threads=6 / lookahead_threads=1 / sliced_threads=0 / nr=0 / decimate=1 / interlaced=0 / bluray_compat=0 / constrained_intra=0 / bframes=7 / b_pyramid=2 / b_adapt=2 / b_bias=0 / direct=1 / weightb=1 / open_gop=0 / weightp=2 / keyint=230 / keyint_min=23 / scenecut=40 / intra_refresh=0 / rc_lookahead=40 / rc=crf / mbtree=0 / crf=19.7 / qcomp=0.60 / qpmin=0 / qpmax=69 / qpstep=4 / vbv_maxrate=62500 / vbv_bufsize=78125 / crf_max=0.0 / nal_hrd=none / filler=0 / ip_ratio=1.40 / pb_ratio=1.30 / aq=1:1.00
Язык : French
Default : Да
Forced : Нет

Аудио #1
Идентификатор : 2
Формат : AC-3
Формат/Информация : Audio Coding 3
Расширение режима : CM (complete main)
Параметр Endianness формата : Big
Идентификатор кодека : A_AC3
Продолжительность : 1 ч. 34 м.
Вид битрейта : Постоянный
Битрейт : 256 Кбит/сек
Каналы : 2 канала
Расположение каналов : Front: L R
Частота : 48,0 КГц
Битовая глубина : 16 бит
Метод сжатия : С потерями
Размер потока : 173 Мбайт (4%)
Заголовок : MVO.OPT
Язык : Russian
Default : Да
Forced : Нет

Аудио #2
Идентификатор : 3
Формат : AC-3
Формат/Информация : Audio Coding 3
Расширение режима : CM (complete main)
Параметр Endianness формата : Big
Идентификатор кодека : A_AC3
Продолжительность : 1 ч. 34 м.
Вид битрейта : Постоянный
Битрейт : 192 Кбит/сек
Каналы : 2 канала
Расположение каналов : Front: L R
Частота : 48,0 КГц
Битовая глубина : 16 бит
Метод сжатия : С потерями
Размер потока : 130 Мбайт (3%)
Заголовок : original
Язык : French
Default : Нет
Forced : Нет


_________________
Проголосуй за трекер Открытый торрент трекер - RUS-MEDIA.ORG

Проголосуй Открытый торрент трекер - RUS-MEDIA.ORG



реклама партнёра


Вернуться к началу
 Профиль Отправить личное сообщение  
 
   Похожие торренты   Автор   Торрент   Размер 
В этой теме нет новых непрочитанных сообщений. Аэроплан / Airplane! [комедия, 1980] BDRip 720p, Mvo+Avo+Sub

salma3

94 | 13

7.57 ГБ

В этой теме нет новых непрочитанных сообщений. Игра в классики / Hopscotch [комедия, приключения, 1980] BDRip 720p, Avo

salma3

20 | 2

7.31 ГБ

В этой теме нет новых непрочитанных сообщений. Драка в Бэттл Крик / Battle Creek Brawl [боевик, комедия, криминал, 1980] BDRip 720p, Mvo+Dvo+Avo+Sub

salma3

65 | 41

7.66 ГБ

В этой теме нет новых непрочитанных сообщений. Трюкач / The Stunt Man [боевик, триллер, драма, 1980] BDRip 720p, Dub

salma3

39 | 12

5.76 ГБ

В этой теме нет новых непрочитанных сообщений. Трюкач / The Stunt Man [боевик, триллер, драма, 1980] BDRip 720p, Dub

salma3

60 | 41

9.63 ГБ

В этой теме нет новых непрочитанных сообщений. Гигантские клешни / Island Claws [ужасы, фантастика, 1980] BDRip 720p, Dvo

salma3

2 | 12

4.37 ГБ

В этой теме нет новых непрочитанных сообщений. Шагающий по ветру / Windwalker [вестерн, драма, приключения, 1980] BDRip 720p, Avo+Sub

salma3

107 | 34

4.35 ГБ


Начать новую тему Ответить на тему  [ 1 сообщение ] 




Для Мосгорсуда, Роскомнадзора и рекламодателей:: mosgorsud-torrent[собачка]yandex.ru