Торрент файл
скачать торрент магнет ссылка Добавлен: 17 окт 2017, 11:42
Размер: 6.22 ГБ
Сидеров: 0
Личеров: 0
Статус: (salma3)
Автор

СообщениеДобавлено: 02 окт 2017, 13:17 

Не в сети
Супермодератор
Аватара пользователя
Дата регистрации:
15 фев 2012, 16:44
Возраст: 28
Спасибо: 6667 / 2146
Сообщения: 46100
Год выхода: 2017
Жанр: фантастика, боевик, триллер
Режиссер: Мэтт Ривз

В ролях: Энди Серкис, Вуди Харрельсон, Стив Зан, Карин Коновал, Амайя Миллер, Терри Нотари, Тай Олссон, Майкл Адамуэйт, Тоби Кеббелл, Гэбриел Чаварриа

О фильме:
Армию генетически модифицированных обезьян ожидает новый вызов: они вынуждены вступить в смертельную схватку с армией людей под руководством безжалостного полковника. После невообразимых потерь среди своих воинов вождь обезьян Цезарь начинает личную борьбу с темными инстинктами и собирается отомстить за весь свой вид. В конце концов он и полковник должны будут сойтись в эпической битве, которая решит, кто теперь будет править на Земле — люди или обезьяны.



Страна: США, Канада, Новая Зеландия
Продолжительность: 02:20:09
Перевод: Дублированный [Лицензия]


Файл
Качество: BDRip 720p
Видео: MPEG-4 AVC, 1280x534, 4500 Kbit/s, 23.976 fps
Аудио01:48 kHz, DTS, 5.1, 768 Kbps | Дублированный | RUS |
Аудио02: 48 kHz, AC3, 5.1, 448 Kbps | Дублированный | RUS |
Аудио03: 48 kHz, AC3, 5.1, 640 Kbps | Оригинал | ENG |
Субтитры: Русские (forced, full), английские

General
Unique ID : 202105524120189869323869019662093637901 (0x980C1BAB52695DA18DEB0351CB37D90D)
Complete name : F:War.for.the.Planet.of.the.Apes.2017.DD.BDRip.720p.ExKinoRay.mkv
Format : Matroska
Format version : Version 4 / Version 2
File size : 6.22 GiB
Duration : 2 h 20 min
Overall bit rate : 6 356 kb/s
Encoded date : UTC 2017-10-17 00:54:02
Writing application : mkvmerge v16.0.0 ('Protest') 64-bit
Writing library : libebml v1.3.5 + libmatroska v1.4.8

Video
ID : 1
Format : AVC
Format/Info : Advanced Video Codec
Format profile : High@L4.1
Format settings : CABAC / 12 Ref Frames
Format settings, CABAC : Yes
Format settings, RefFrames : 12 frames
Codec ID : V_MPEG4/ISO/AVC
Duration : 2 h 20 min
Bit rate : 4 500 kb/s
Width : 1 280 pixels
Height : 534 pixels
Display aspect ratio : 2.40:1
Frame rate mode : Constant
Frame rate : 23.976 (24000/1001) FPS
Color space : YUV
Chroma subsampling : 4:2:0
Bit depth : 8 bits
Scan type : Progressive
Bits/(Pixel*Frame) : 0.275
Stream size : 4.40 GiB (71%)
Writing library : x264 core 146 r2538 121396c
Encoding settings : cabac=1 / ref=12 / deblock=1:-2:-2 / analyse=0x3:0x133 / me=umh / subme=11 / psy=1 / psy_rd=1.05:0.05 / mixed_ref=1 / me_range=32 / chroma_me=1 / trellis=2 / 8x8dct=1 / cqm=0 / deadzone=21,11 / fast_pskip=0 / chroma_qp_offset=-3 / threads=12 / lookahead_threads=2 / sliced_threads=0 / nr=0 / decimate=0 / interlaced=0 / bluray_compat=0 / constrained_intra=0 / bframes=8 / b_pyramid=2 / b_adapt=2 / b_bias=0 / direct=3 / weightb=1 / open_gop=0 / weightp=2 / keyint=240 / keyint_min=23 / scenecut=40 / intra_refresh=0 / rc_lookahead=50 / rc=2pass / mbtree=0 / bitrate=4500 / ratetol=1.0 / qcomp=0.60 / qpmin=0 / qpmax=69 / qpstep=4 / cplxblur=20.0 / qblur=0.5 / vbv_maxrate=50000 / vbv_bufsize=62500 / nal_hrd=none / filler=0 / ip_ratio=1.40 / pb_ratio=1.30 / aq=3:0.80
Language : English
Default : Yes
Forced : No

Audio #1
ID : 2
Format : DTS
Format/Info : Digital Theater Systems
Mode : 16
Format settings, Endianness : Big
Codec ID : A_DTS
Duration : 2 h 20 min
Bit rate mode : Constant
Bit rate : 768 kb/s
Channel(s) : 6 channels
Channel positions : Front: L C R, Side: L R, LFE
Sampling rate : 48.0 kHz
Frame rate : 93.750 FPS (512 SPF)
Bit depth : 24 bits
Compression mode : Lossy
Stream size : 770 MiB (12%)
Title : Dub [License]
Language : Russian
Default : Yes
Forced : No

Audio #2
ID : 3
Format : AC-3
Format/Info : Audio Coding 3
Format settings, Endianness : Big
Codec ID : A_AC3
Duration : 2 h 20 min
Bit rate mode : Constant
Bit rate : 448 kb/s
Channel(s) : 6 channels
Channel positions : Front: L C R, Side: L R, LFE
Sampling rate : 48.0 kHz
Frame rate : 31.250 FPS (1536 SPF)
Bit depth : 16 bits
Compression mode : Lossy
Stream size : 449 MiB (7%)
Title : Dub [License]
Language : Russian
Service kind : Complete Main
Default : No
Forced : No

Audio #3
ID : 4
Format : AC-3
Format/Info : Audio Coding 3
Format settings, Endianness : Big
Codec ID : A_AC3
Duration : 2 h 20 min
Bit rate mode : Constant
Bit rate : 640 kb/s
Channel(s) : 6 channels
Channel positions : Front: L C R, Side: L R, LFE
Sampling rate : 48.0 kHz
Frame rate : 31.250 FPS (1536 SPF)
Bit depth : 16 bits
Compression mode : Lossy
Stream size : 642 MiB (10%)
Title : Original
Language : English
Service kind : Complete Main
Default : No
Forced : No

Text #1
ID : 5
Format : UTF-8
Codec ID : S_TEXT/UTF8
Codec ID/Info : UTF-8 Plain Text
Duration : 2 h 18 min
Bit rate : 8 b/s
Count of elements : 220
Stream size : 8.96 KiB (0%)
Title : Forced
Language : Russian
Default : Yes
Forced : No

Text #2
ID : 6
Format : UTF-8
Codec ID : S_TEXT/UTF8
Codec ID/Info : UTF-8 Plain Text
Duration : 2 h 18 min
Bit rate : 28 b/s
Count of elements : 797
Stream size : 28.5 KiB (0%)
Title : Full
Language : Russian
Default : No
Forced : No

Text #3
ID : 7
Format : UTF-8
Codec ID : S_TEXT/UTF8
Codec ID/Info : UTF-8 Plain Text
Duration : 2 h 8 min
Bit rate : 16 b/s
Count of elements : 748
Stream size : 15.5 KiB (0%)
Title : Full
Language : English
Default : No
Forced : No

Text #4
ID : 8
Format : UTF-8
Codec ID : S_TEXT/UTF8
Codec ID/Info : UTF-8 Plain Text
Duration : 2 h 9 min
Bit rate : 20 b/s
Count of elements : 1010
Stream size : 19.8 KiB (0%)
Title : SDH
Language : English
Default : No
Forced : No

Menu
00:00:00.000 : en:00:00:00.000
00:05:05.889 : en:00:05:05.889
00:09:06.713 : en:00:09:06.713
00:12:14.108 : en:00:12:14.108
00:18:21.017 : en:00:18:21.017
00:25:04.503 : en:00:25:04.503
00:30:17.399 : en:00:30:17.399
00:34:13.093 : en:00:34:13.093
00:37:46.347 : en:00:37:46.347
00:42:54.447 : en:00:42:54.447
00:49:31.802 : en:00:49:31.802
00:54:14.626 : en:00:54:14.626
00:58:49.818 : en:00:58:49.818
01:05:24.129 : en:01:05:24.129
01:10:18.381 : en:01:10:18.381
01:14:53.823 : en:01:14:53.823
01:18:59.193 : en:01:18:59.193
01:25:35.672 : en:01:25:35.672
01:29:37.372 : en:01:29:37.372
01:34:22.824 : en:01:34:22.824
01:39:27.712 : en:01:39:27.712
01:43:48.222 : en:01:43:48.222
01:48:45.394 : en:01:48:45.394
01:55:20.580 : en:01:55:20.580
01:58:04.703 : en:01:58:04.703
02:02:33.930 : en:02:02:33.930
02:05:54.797 : en:02:05:54.797
02:12:51.213 : en:02:12:51.213




_________________
Проголосуй за трекер Открытый торрент трекер - RUS-MEDIA.ORG

Проголосуй Открытый торрент трекер - RUS-MEDIA.ORG



реклама партнёра


Вернуться к началу
 Профиль Отправить личное сообщение  
 
   Похожие торренты   Автор   Торрент   Размер 
В этой теме нет новых непрочитанных сообщений. Планета обезьян: Война / War for the Planet of the Apes [фантастика, боевик, триллер, 2017] BDRip, Dub+Sub [Лицензия]

salma3

906 | 242

2.18 ГБ

В этой теме нет новых непрочитанных сообщений. Планета обезьян: Война / War for the Planet of the Apes [фантастика, боевик, триллер, 2017] BDRip, Dub+Sub [Лицензия]

salma3

2076 | 1009

1.46 ГБ

В этой теме нет новых непрочитанных сообщений. Планета обезьян: Война / War for the Planet of the Apes [фантастика, боевик, триллер, 2017] BDRip 1080p, Dub+Sub [Лицензия]

salma3

321 | 25

12.58 ГБ

В этой теме нет новых непрочитанных сообщений. Планета обезьян: Война / War for the Planet of the Apes [фантастика, боевик, триллер, 2017] BDRemux 1080p, Dub+Sub [Лицензия]

salma3

174 | 47

28.3 ГБ

В этой теме нет новых непрочитанных сообщений. Планета обезьян: Война / War for the Planet of the Apes [фантастика, боевик, триллер, 2017] BDRemux 1080p, Dub+Sub [Лицензия] [3D-Video]

salma3

18 | 9

40.92 ГБ

В этой теме нет новых непрочитанных сообщений. Планета обезьян: Война / War for the Planet of the Apes [Фантастика, боевик, приключения, 2017] BDRemux 1080p, Dub [Лицензия]

salma3

58 | 75

31.78 ГБ

В этой теме нет новых непрочитанных сообщений. Планета обезьян: Война / War for the Planet of the Apes [Фантастика, боевик, приключения, 2017] BDRemux 1080p, Dub [Лицензия]

salma3

22 | 11

31.78 ГБ


СообщениеДобавлено: 12 окт 2017, 22:39 

Не в сети
Супермодератор
Аватара пользователя
Дата регистрации:
15 фев 2012, 16:44
Возраст: 28
Спасибо: 6667 / 2146
Сообщения: 46100
salma3 писал(а):
Re: Планета обезьян: Война / War for the Planet of the Apes [фантастика, боевик, триллер, 2017] BDRip 720p, Dub [iTunes]

_________________
Проголосуй за трекер Открытый торрент трекер - RUS-MEDIA.ORG

Проголосуй Открытый торрент трекер - RUS-MEDIA.ORG


Вернуться к началу
 Профиль Отправить личное сообщение  
 

СообщениеДобавлено: 17 окт 2017, 11:42 

Не в сети
Супермодератор
Аватара пользователя
Дата регистрации:
15 фев 2012, 16:44
Возраст: 28
Спасибо: 6667 / 2146
Сообщения: 46100
salma3 писал(а):
Re: Планета обезьян: Война / War for the Planet of the Apes [фантастика, боевик, триллер, 2017] BDRip 720p, Dub+Sub [Лицензия]

_________________
Проголосуй за трекер Открытый торрент трекер - RUS-MEDIA.ORG

Проголосуй Открытый торрент трекер - RUS-MEDIA.ORG


Вернуться к началу
 Профиль Отправить личное сообщение  
 
Начать новую тему Ответить на тему  [ Сообщений: 3 ] 




Для Мосгорсуда, Роскомнадзора и рекламодателей:: mosgorsud-torrent[собачка]yandex.ru