Торрент файл
скачать торрент магнет ссылка Добавлен: 02 окт 2017, 11:35
Размер: 4.02 ГБ
Сидеров: 688
Личеров: 72
Статус: (salma3)
Автор

СообщениеДобавлено: 02 окт 2017, 11:35 

Не в сети
Супермодератор
Аватара пользователя
Дата регистрации:
15 фев 2012, 16:44
Возраст: 28
Спасибо: 6915 / 2147
Сообщения: 52578
Год выпуска: 2017
Жанр: боевик, триллер, криминал
Режиссер: Тейлор Шеридан

В ролях: Джереми Реннер, Элизабет Олсен, Джон Бернтал, Келси Эсбиль, Джулия Джонс, Тео Брионес, Апесанахкват Грэм Грин, Танту Кардинал, Эрик Ланж

Описание:
В пустыне на территории индейской резервации «Ветреная река» егерь Кори Ламберт находит изувеченное тело молодой девушки. Опытный охотник с трагическим прошлым, он берется помочь в расследовании этого дела агенту ФБР Джейн Бэннер, которая оказывается в мире, полном загадок и насилия. Но смогут ли они противостоять зловещим силам этих мест, где сама природа пропитана горечью и жаждой мщения?..



Страна: Великобритания, Канада, США
Продолжительность: 01:51:57
Перевод: Любительский (многоголосый, закадровый)[MUZOBOZ]

Формат: HDTV 1080p
Видео: 1920x800p (2.40:1), 23.976 fps, AVC MPEG-4 (H.264), ~4748 kbps, 0.131 bit/pixel
Аудио: Русский: 48 kHz, AC3 Dolby Digital, 2 ch, ~384 kbps

Присутствует реклама.

Формат : Matroska
Версия формата : Version 2
Размер файла : 4,02 Гбайт
Продолжительность : 1 ч. 51 м.
Режим общего битрейта : Переменный
Общий поток : 5132 Кбит/сек
Программа кодирования : libmatroska 1.4.1

Видео
Идентификатор : 1
Формат : AVC
Формат/Информация : Advanced Video Codec
Профиль формата :
Параметр CABAC формата : Да
Параметр RefFrames формата : 5 кадров
Идентификатор кодека : V_MPEG4/ISO/AVC
Продолжительность : 1 ч. 51 м.
Вид битрейта : Переменный
Битрейт : 4748 Кбит/сек
Максимальный битрейт : 5500 Кбит/сек
Ширина : 1920 пикселей
Высота : 800 пикселя
Соотношение сторон : 2,40:1
Режим частоты кадров : Постоянный
Частота кадров : 23,976 (24000/1001) кадра/сек
Стандарт вещания : Component
Цветовое пространство : YUV
Субдискретизация насыщенности : 4:2:0
Битовая глубина : 8 бит
Тип развёртки : Прогрессивная
Бит/(Пиксели*Кадры) : 0.131
Размер потока : 3,71 Гбайт (93%)
Default : Нет
Forced : Нет
Цветовой диапазон : Limited
Основные цвета : BT.709
Характеристики трансфера : BT.709
Коэффициенты матрицы : BT.709

Аудио
Идентификатор : 2
Формат : AC-3
Формат/Информация : Audio Coding 3
Параметр Endianness формата : Big
Идентификатор кодека : A_AC3
Продолжительность : 1 ч. 51 м.
Вид битрейта : Постоянный
Битрейт : 384 Кбит/сек
Каналы : 2 канала
Расположение каналов : Front: L R
Частота : 48,0 КГц
Частота кадров : 31,250 кадров/сек (1536 SPF)
Битовая глубина : 16 бит
Метод сжатия : С потерями
Размер потока : 308 Мбайт (7%)
Default : Нет
Forced : Нет





_________________
Проголосуй за трекер Открытый торрент трекер - RUS-MEDIA.ORG

Проголосуй Открытый торрент трекер - RUS-MEDIA.ORG



реклама партнёра


Вернуться к началу
 Профиль Отправить личное сообщение  
 
   Похожие торренты   Автор   Торрент   Размер 
В этой теме нет новых непрочитанных сообщений. Ветреная река / Wind River [боевик, триллер, криминал, 2017] BDRip, Dub [iTunes]

salma3

49 | 5

1.41 ГБ

В этой теме нет новых непрочитанных сообщений. Ветреная река / Wind River [боевик, триллер, криминал, детектив, 2017] HDTVRip, Mvo

salma3

2177 | 236

1.46 ГБ

В этой теме нет новых непрочитанных сообщений. Ветреная река / Wind River [боевик, триллер, криминал, 2017] WEBRip, Dub [Звук с TS]

salma3

1039 | 366

1.46 ГБ

В этой теме нет новых непрочитанных сообщений. Ветреная река / Wind River [триллер, драма, криминал, 2017] BDRip 1080p, Dub [iTunes]

salma3

75 | 10

7.55 ГБ

В этой теме нет новых непрочитанных сообщений. Ветреная река / Wind River [Боевик, Детектив, Криминал, 2017] WEB-DLRip-AVC, Dub [iTunes]

salma3

42 | 19

1.75 ГБ

В этой теме нет новых непрочитанных сообщений. Ветреная река / Wind River [Боевик, Детектив, Криминал, 2017] WEB-DLRip 720p, Dub [iTunes]

salma3

1648 | 147

3.23 ГБ

В этой теме нет новых непрочитанных сообщений. Таинственная река / Mystic River [Триллер, драма, криминал, 2003] BDRemux 1080p, Dub

salma3

0 | 23

32.03 ГБ


Начать новую тему Ответить на тему  [ 1 сообщение ] 




Для Мосгорсуда, Роскомнадзора и рекламодателей:: mosgorsud-torrent[собачка]yandex.ru
cron