Торрент файл
скачать торрент магнет ссылка Добавлен: 01 окт 2017, 21:16
Размер: 11.06 ГБ
Сидеров: 4
Личеров: 6
Статус: (salma3)
Автор

СообщениеДобавлено: 01 окт 2017, 21:16 

Не в сети
Супермодератор
Аватара пользователя
Дата регистрации:
15 фев 2012, 16:44
Возраст: 28
Спасибо: 7165 / 2147
Сообщения: 61901
Год выхода: 1996
Жанр: комедия, драма, мелодрама
Режиссер: Роберт Харлинг / Robert Harling

В ролях: Ширли МакЛейн, Билл Пэкстон, Джульетт Льюис, Миранда Ричардсон, Бен Джонсон, Скотт Вулф, Джордж Ньюберн, Мэрион Росс, МакКензи Эстин, Дональд Моффет

О фильме:
Может ли бабушка большого семейства помышлять о личной жизни? Аврора Гринуэй, посвятившая всю свою жизнь родным и близким и продолжающая борьбу за их благополучие, еще способна вскружить голову молодому мужчине. Что уж говорить о более «зрелых» поклонниках, таких, как астронавт Гэррет Бридлав, который многие годы не в состоянии забыть такую женщину!



Страна: СШАt
Продолжительность: 02:09:20
Перевод: Авторский (одноголосый закадровый) Петр Карцев

Файл
Кодек: h.264
Качество: WEBRip 1080p
Видео: 1920x1080, 16:9, 11400 kbps, 23.976 fps
Аудио1: Русский / Одногоголосый закадровый (Петр Карцев), AC3, 2 ch, 48 KHz, 192 kbps
Аудио2: Английский, AC3, 6 ch, 48 KHz, 640 kbps
Субтитры: английские (SRT)

Семпл

General
Unique ID : 178187697469746687284281557263953570676 (0x860DB3C53426A4F08736486792322B74)
Complete name : D:DownloadsThe.Evening.Star.1996.WEBRip.1080p.mkv
Format : Matroska
Format version : Version 4 / Version 2
File size : 11.1 GiB
Duration : 2 h 9 min
Overall bit rate mode : Variable
Overall bit rate : 12.2 Mb/s
Encoded date : UTC 2017-10-01 11:58:31
Writing application : mkvmerge v15.0.0 ('Duel with the Devil') 64-bit
Writing library : libebml v1.3.5 + libmatroska v1.4.5

Video
ID : 1
Format : AVC
Format/Info : Advanced Video Codec
Format profile : High@L4
Format settings, CABAC : Yes
Format settings, ReFrames : 4 frames
Codec ID : V_MPEG4/ISO/AVC
Duration : 2 h 9 min
Bit rate mode : Variable
Bit rate : 11.4 Mb/s
Maximum bit rate : 15.0 Mb/s
Width : 1 920 pixels
Height : 1 080 pixels
Display aspect ratio : 16:9
Frame rate mode : Constant
Frame rate : 23.976 (24000/1001) FPS
Color space : YUV
Chroma subsampling : 4:2:0
Bit depth : 8 bits
Scan type : Progressive
Bits/(Pixel*Frame) : 0.229
Stream size : 10.3 GiB (93%)
Writing library : x264 core 148 r2623 d5b2374
Encoding settings : cabac=1 / ref=4 / deblock=1:-1:-1 / analyse=0x3:0x133 / me=umh / subme=9 / psy=1 / psy_rd=1.00:0.15 / mixed_ref=1 / me_range=24 / chroma_me=1 / trellis=2 / 8x8dct=1 / cqm=0 / deadzone=21,11 / fast_pskip=1 / chroma_qp_offset=-3 / threads=34 / lookahead_threads=5 / sliced_threads=0 / nr=150 / decimate=1 / interlaced=0 / bluray_compat=0 / constrained_intra=0 / bframes=8 / b_pyramid=2 / b_adapt=2 / b_bias=0 / direct=3 / weightb=1 / open_gop=0 / weightp=2 / keyint=120 / keyint_min=61 / scenecut=0 / intra_refresh=0 / rc_lookahead=120 / rc=crf / mbtree=1 / crf=18.0 / qcomp=0.60 / qpmin=0 / qpmax=69 / qpstep=4 / vbv_maxrate=15000 / vbv_bufsize=31250 / crf_max=0.0 / nal_hrd=vbr / filler=0 / ip_ratio=1.40 / aq=3:1.00
Default : Yes
Forced : No
Color range : Limited
Color primaries : BT.709
Transfer characteristics : BT.709
Matrix coefficients : BT.709

Audio #1
ID : 2
Format : AC-3
Format/Info : Audio Coding 3
Format settings, Endianness : Big
Codec ID : A_AC3
Duration : 2 h 9 min
Bit rate mode : Constant
Bit rate : 192 kb/s
Channel(s) : 2 channels
Channel positions : Front: L R
Sampling rate : 48.0 kHz
Frame rate : 31.250 FPS (1536 spf)
Bit depth : 16 bits
Compression mode : Lossy
Stream size : 178 MiB (2%)
Title : Авторский (одноголосый закадровый) | Петр Карцев
Language : Russian
Service kind : Complete Main
Default : Yes
Forced : No

Audio #2
ID : 3
Format : E-AC-3
Format/Info : Enhanced Audio Coding 3
Format settings, Endianness : Big
Codec ID : A_EAC3
Duration : 2 h 9 min
Bit rate mode : Constant
Bit rate : 640 kb/s
Channel(s) : 6 channels
Channel positions : Front: L C R, Side: L R, LFE
Sampling rate : 48.0 kHz
Frame rate : 187.500 FPS (256 spf)
Compression mode : Lossy
Stream size : 592 MiB (5%)
Language : English
Service kind : Complete Main
Default : No
Forced : No

Text
ID : 4
Format : UTF-8
Codec ID : S_TEXT/UTF8
Codec ID/Info : UTF-8 Plain Text
Duration : 2 h 0 min
Bit rate : 54 b/s
Count of elements : 2055
Stream size : 48.4 KiB (0%)
Language : English
Default : No
Forced : No


_________________
Проголосуй за трекер Открытый торрент трекер - RUS-MEDIA.ORG

Проголосуй Открытый торрент трекер - RUS-MEDIA.ORG


Вернуться к началу
 Профиль Отправить личное сообщение  
 
   Похожие торренты   Автор   Торрент   Размер 
В этой теме нет новых непрочитанных сообщений. Рок-звезда / Rock Star [драма, комедия, музыка, 2001] BDRip-HEVC 1080p, Dub

salma3

14 | 0

4.67 ГБ

В этой теме нет новых непрочитанных сообщений. Жестяная звезда / Tin Star [S01] [Драма, 2017] WEBRip 720p, Dvo [Sunshine Studio]

salma3

205 | 212

6.24 ГБ

В этой теме нет новых непрочитанных сообщений. Жестяной кубок / Tin cup [драма, мелодрама, комедия, спорт, 1996] WEBRip 1080p, Mvo+Dvo+Avo+Sub

salma3

39 | 117

11.21 ГБ

В этой теме нет новых непрочитанных сообщений. Северная звезда / North Star [Приключения, вестерн, экранизация, 1996] DVDRip, Avo

salma3

97 | 29

1.46 ГБ

В этой теме нет новых непрочитанных сообщений. Путеводная звезда / The Star [Мультфильм, фэнтези, комедия, 2017] BDRemux 1080p, Dub [Лицензия]

salma3

0 | 1

15.83 ГБ

В этой теме нет новых непрочитанных сообщений. Путеводная звезда / The Star [Мультфильм, фэнтези, комедия, 2017] BDRip 1080p, Dub [Лицензия]

salma3

21 | 6

7.38 ГБ

В этой теме нет новых непрочитанных сообщений. Жестяной кубок / Tin cup [драма, мелодрама, комедия, спорт, 1996] WEBRip, Mvo

salma3

38 | 11

1.46 ГБ


Начать новую тему Ответить на тему  [ 1 сообщение ] 




Для Мосгорсуда, Роскомнадзора и рекламодателей:: mosgorsud-torrent[собачка]yandex.ru
cron