Торрент файл
скачать торрент магнет ссылка Добавлен: 30 сен 2017, 11:20
Размер: 59.66 ГБ
Сидеров: 5
Личеров: 2
Статус: (salma3)
Автор

СообщениеДобавлено: 30 сен 2017, 11:20 

Не в сети
Супермодератор
Аватара пользователя
Дата регистрации:
15 фев 2012, 16:44
Возраст: 29
Спасибо: 7320 / 2147
Сообщения: 73192
Год выхода: 1997
Жанр: Драма, катастрофа, мелодрама
Режиссер: Джеймс Кэмерон

В ролях: Леонардо ДиКаприо, Билл Пэкстон, Бернард Хилл, Фрэнсис Фишер, Кейт Уинслет, Билли Зейн, Кэти Бэйтс, Джонатан Хайд, Дэвид Уорнер, Йоан Граффадд, Виктор Гарбер, Сьюзи Эймис, Марк Линдсэй Чэпмэн, Дэнни Нуччи, Глория Стюарт, Брендан Коннолли, Джеймс Кэмерон

О фильме:
Титаник... Она ступила на его грандиозную палубу, зная, что лайнер везет ее в будущую тюрьму, имя которой - брак по расчету... Он в последний момент чудом оказался на уровне кают третьего класса, но свято верил, что этот пароход доставит его в будущее, которое в его собственных руках! Кто же мог тогда предположить, что будущее самого лайнера уже предопределено? Но в мире все-же есть непотопляемые вещи... И может быть одна из них - это простая человеческая память?..



Страна: США
Продолжительность: 03:14:54
Перевод: Дублированный, профессиональный многоголосый, профессиональный двухголосый, авторский

Файл
Кодек: MPEG-4 AVC
Качество: BDRemux 1080p
Видео: 31344 Кбит/с, 1920x1080, 23.976 кадр/с
Аудио 1: Русский: DTS / 5.1 / 48 kHz / 24-bit / 768 Kbps - Дубляж 2012 г
Аудио 2: Русский: AC3 / 5.1 / 48 kHz / 16-bit / 448 Kbps - Дубляж 1997 г
Аудио 3: Русский: AC3 / 5.1 / 48 kHz / 16-bit / 384 Kbps - Профессиональный многоголосый (Киномания)
Аудио 4: Русский: DTS-HD Master Audio / 5.1 / 3897 kbps / 48 kHz / 24-bit (DTS Core: 5.1 / 48 kHz / 1509 kbps / 24-bit) - Профессиональный двухголосый (Гланц, Королева)
Аудио 5: Русский: AC3 / 5.1 / 48 kHz / 16-bit / 448 Kbps - Профессиональный двухголосый (НТВ+)
Аудио 6: Русский: DTS / 5.1 / 48 kHz / 24-bit / 768 Kbps - Авторский (А.Гаврилов)
Аудио 7: Русский: AC3 / 5.1 / 48 kHz / 16-bit / 448 Kbps - Авторский (Ю.Живов)
Аудио 8: Русский: AC3 / 2.0 / 48 kHz / 16-bit / 192 Kbps - Авторский (А.Кашкин)
Аудио 9: Русский: AC3 / 2.0 / 48 kHz / 16-bit / 192 Kbps - Авторский (С.Визгунов)
Аудио 10: Русский: AC3 / 2.0 / 48 kHz / 16-bit / 192 Kbps - Авторский (Н.Антонов)
Аудио 11: Английский: DTS-HD Master Audio / 5.1 / 3894 kbps / 48 kHz / 24-bit (DTS Core: 5.1 / 48 kHz / 1509 kbps / 24-bit) - Оригинал
Аудио 12: Украинский: AC3 / 5.1 / 48 kHz / 16-bit / 448 Kbps - Дубляж
Аудио 13: Украинский: AC3 / 2.0 / 48 kHz / 16-bit / 192 Kbps - Профессиональный многоголосый (Новый канал)
Аудио 14: Украинский: AC3 / 2.0 / 48 kHz / 16-bit / 192 Kbps - Профессиональный многоголосый (1+1)
Субтитры: Русские, английские, украинские
Главы: есть

7 «Золотых сателлитов» — за лучшую драму, режиссуру, музыку, песню, монтаж (Конрад Бафф IV, Джеймс Кэмерон, Ричард Хэррис), работу художника-постановщика (Питер Лэмонт) и художника по костюмам (Дебора Линн Скотт), специальное упоминание Национального совета обозревателей за использование спецэффектов, «Аманда» в Норвегии, приз Японской киноакадемии и «Голубая лента» за лучшую иностранную ленту в Японии, «Чешский лев» за самую кассовую картину в 1998 году, «Грэмми» за песню в 1999 году.

Сатурн, 2006 год
Номинации (1):
Лучшее DVD-издание классического фильма

Сезар, 1999 год
Номинации (1):
Лучший фильм на иностранном языке

Оскар, 1998 год
Победитель (11):
Лучший фильм
Лучший режиссер (Джеймс Кэмерон)
Лучшая работа оператора
Лучшие декорации
Лучшие костюмы
Лучший звук
Лучший монтаж
Лучший монтаж звука
Лучшие визуальные эффекты
Лучшая песня — «My Heart Will Go On»
Лучший саундтрек к драматическому фильму

Номинации (3):
Лучшая женская роль (Кейт Уинслет)
Лучшая женская роль второго плана (Глория Стюарт)
Лучший грим

Золотой глобус, 1998 год
Победитель (4):
Лучший фильм (драма)
Лучший режиссер (Джеймс Кэмерон)
Лучшая песня — «My Heart Will Go On»
Лучший саундтрек

Номинации (4):
Лучшая мужская роль (драма) (Леонардо ДиКаприо)
Лучшая женская роль (драма) (Кейт Уинслет)
Лучшая женская роль второго плана (Глория Стюарт)
Лучший сценарий

Премия канала «MTV», 1998 год
Победитель (2):
Лучший фильм
Лучшая мужская роль (Леонардо ДиКаприо)

Номинации (6):
Лучшая песня — «My Heart Will Go On»
Лучший экранный дуэт (Леонардо ДиКаприо, Кейт Уинслет)
Лучшая экшн-сцена
Лучший поцелуй (Леонардо ДиКаприо, Кейт Уинслет)
Лучшая женская роль (Кейт Уинслет)
Лучший злодей (Билли Зейн)

Британская академия, 1998 год
Номинации (10):
Лучший фильм
Лучшая работа оператора
Лучшие костюмы
Лучший звук
Лучший монтаж
Лучшие визуальные эффекты
Лучший грим/прически
Лучшая работа художника-постановщика
Премия имени Дэвида Лина за достижения в режиссуре (Джеймс Кэмерон)
Премия имени Энтони Эскуита за достижения в создании музыки к фильму

Европейская киноакадемия, 1998 год
Победитель (1):
Приз зрительских симпатий за лучшую женскую роль (Кейт Уинслет)

Номинации (1):
Приз за выдающиеся достижения в мировом кино (Кейт Уинслет)

Сатурн, 1998 год
Победитель (1):
Лучшая актриса второго плана (Глория Стюарт)

Номинации (1):
Лучший приключенческий фильм, боевик или триллер

Общее
Уникальный идентификатор : 207481255432145288386147994220375356229 (0x9C176FAFA02123F0ADA9E2E1E010B345)
Полное имя : D:\РЕМУКС!!!!!\Титаник.BDRemux..mkv
Формат : Matroska
Версия формата : Version 4 / Version 2
Размер файла : 59,7 Гбайт
Продолжительность : 3 ч. 14 м.
Режим общего битрейта : Переменный
Общий поток : 43,8 Мбит/сек
Дата кодирования : UTC 2016-02-24 15:01:00
Программа кодирования : mkvmerge v6.1.0 ('Old Devil') built on Mar 4 2013 09:10:42
Библиотека кодирования : libebml v1.3.0 + libmatroska v1.4.0
Attachements : cover.jpg

Видео
Идентификатор : 1
Формат : AVC
Формат/Информация : Advanced Video Codec
Профиль формата : High@L4.1
Параметр CABAC формата : Да
Параметр ReFrames формата : 3 кадра
Режим смешивания : Container profile=Unknown@0.0
Идентификатор кодека : V_MPEG4/ISO/AVC
Продолжительность : 3 ч. 14 м.
Ширина : 1920 пикселей
Высота : 1080 пикселей
Соотношение сторон : 16:9
Режим частоты кадров : Постоянный
Частота кадров : 23,976 кадра/сек
Цветовое пространство : YUV
Субдискретизация насыщенности : 4:2:0
Битовая глубина : 8 бит
Тип развёртки : Прогрессивная
Заголовок : Titanic (1997) / 1920x1080p / ~31344 Kbps
Язык : English
Default : Да
Forced : Нет

Аудио #1
Идентификатор : 2
Формат : DTS
Формат/Информация : Digital Theater Systems
Режим : 16
Параметр Endianness формата : Big
Идентификатор кодека : A_DTS
Продолжительность : 3 ч. 14 м.
Вид битрейта : Постоянный
Битрейт : 768 Кбит/сек
Каналы : 6 каналов
Расположение каналов : Front: L C R, Side: L R, LFE
Частота : 48,0 КГц
Битовая глубина : 24 бит
Метод сжатия : С потерями
Размер потока : 1,05 Гбайт (2%)
Заголовок : Русский DTS 768 Kbps - Дубляж 2012
Язык : Russian
Default : Да
Forced : Нет

Аудио #2
Идентификатор : 3
Формат : AC-3
Формат/Информация : Audio Coding 3
Расширение режима : CM (complete main)
Параметр Endianness формата : Big
Идентификатор кодека : A_AC3
Продолжительность : 3 ч. 14 м.
Вид битрейта : Постоянный
Битрейт : 448 Кбит/сек
Каналы : 6 каналов
Расположение каналов : Front: L C R, Side: L R, LFE
Частота : 48,0 КГц
Битовая глубина : 16 бит
Метод сжатия : С потерями
Размер потока : 625 Мбайт (1%)
Заголовок : Русский AC3 448 Kbps - Дубляж 1997
Язык : Russian
Default : Нет
Forced : Нет

Аудио #3
Идентификатор : 4
Формат : AC-3
Формат/Информация : Audio Coding 3
Расширение режима : CM (complete main)
Параметр Endianness формата : Big
Идентификатор кодека : A_AC3
Продолжительность : 3 ч. 14 м.
Вид битрейта : Постоянный
Битрейт : 384 Кбит/сек
Каналы : 6 каналов
Расположение каналов : Front: L C R, Side: L R, LFE
Частота : 48,0 КГц
Битовая глубина : 16 бит
Метод сжатия : С потерями
Размер потока : 535 Мбайт (1%)
Заголовок : Русский AC3 384 Kbps - ПМ Киномания
Язык : Russian
Default : Нет
Forced : Нет

Аудио #4
Идентификатор : 5
Формат : DTS
Формат/Информация : Digital Theater Systems
Профиль формата : MA / Core
Режим : 16
Параметр Endianness формата : Big
Идентификатор кодека : A_DTS
Продолжительность : 3 ч. 14 м.
Вид битрейта : Переменный
Битрейт : Неизвестно / 1509 Кбит/сек
Каналы : 6 каналов
Расположение каналов : Front: L C R, Side: L R, LFE
Частота : 48,0 КГц
Битовая глубина : 24 бит
Метод сжатия : Без потерь / Lossy
Заголовок : Русский DTS-HD MA 3897 Kbps - ПД Гланц, Королева
Язык : Russian
Default : Нет
Forced : Нет

Аудио #5
Идентификатор : 6
Формат : AC-3
Формат/Информация : Audio Coding 3
Расширение режима : CM (complete main)
Параметр Endianness формата : Big
Идентификатор кодека : A_AC3
Продолжительность : 3 ч. 14 м.
Вид битрейта : Постоянный
Битрейт : 448 Кбит/сек
Каналы : 6 каналов
Расположение каналов : Front: L C R, Side: L R, LFE
Частота : 48,0 КГц
Битовая глубина : 16 бит
Метод сжатия : С потерями
Размер потока : 625 Мбайт (1%)
Заголовок : Русский AC3 448 Kbps - ПД НТВ+
Язык : Russian
Default : Нет
Forced : Нет

Аудио #6
Идентификатор : 7
Формат : DTS
Формат/Информация : Digital Theater Systems
Режим : 16
Параметр Endianness формата : Big
Идентификатор кодека : A_DTS
Продолжительность : 3 ч. 14 м.
Вид битрейта : Постоянный
Битрейт : 755 Кбит/сек
Каналы : 6 каналов
Расположение каналов : Front: L C R, Side: L R, LFE
Частота : 48,0 КГц
Битовая глубина : 24 бит
Метод сжатия : С потерями
Размер потока : 1,03 Гбайт (2%)
Заголовок : Русский DTS 768 Kbps - А.Гаврилов
Язык : Russian
Default : Нет
Forced : Нет

Аудио #7
Идентификатор : 8
Формат : AC-3
Формат/Информация : Audio Coding 3
Расширение режима : CM (complete main)
Параметр Endianness формата : Big
Идентификатор кодека : A_AC3
Продолжительность : 3 ч. 14 м.
Вид битрейта : Постоянный
Битрейт : 448 Кбит/сек
Каналы : 6 каналов
Расположение каналов : Front: L C R, Side: L R, LFE
Частота : 48,0 КГц
Битовая глубина : 16 бит
Метод сжатия : С потерями
Размер потока : 625 Мбайт (1%)
Заголовок : Русский AC3 448 Kbps - Ю. Живов
Язык : Russian
Default : Нет
Forced : Нет

Аудио #8
Идентификатор : 9
Формат : AC-3
Формат/Информация : Audio Coding 3
Расширение режима : CM (complete main)
Параметр Endianness формата : Big
Идентификатор кодека : A_AC3
Продолжительность : 3 ч. 14 м.
Вид битрейта : Постоянный
Битрейт : 192 Кбит/сек
Каналы : 2 канала
Расположение каналов : Front: L R
Частота : 48,0 КГц
Битовая глубина : 16 бит
Метод сжатия : С потерями
Размер потока : 268 Мбайт (0%)
Заголовок : Русский AC3 192 Kbps - А. Кашкин
Язык : Russian
Default : Нет
Forced : Нет

Аудио #9
Идентификатор : 10
Формат : AC-3
Формат/Информация : Audio Coding 3
Расширение режима : CM (complete main)
Параметр Endianness формата : Big
Идентификатор кодека : A_AC3
Продолжительность : 3 ч. 14 м.
Вид битрейта : Постоянный
Битрейт : 192 Кбит/сек
Каналы : 2 канала
Расположение каналов : Front: L R
Частота : 48,0 КГц
Битовая глубина : 16 бит
Метод сжатия : С потерями
Размер потока : 268 Мбайт (0%)
Заголовок : Русский AC3 192 Kbps - С. Визгунов
Язык : Russian
Default : Нет
Forced : Нет

Аудио #10
Идентификатор : 11
Формат : AC-3
Формат/Информация : Audio Coding 3
Расширение режима : CM (complete main)
Параметр Endianness формата : Big
Идентификатор кодека : A_AC3
Продолжительность : 3 ч. 14 м.
Вид битрейта : Постоянный
Битрейт : 192 Кбит/сек
Каналы : 2 канала
Расположение каналов : Front: L R
Частота : 48,0 КГц
Битовая глубина : 16 бит
Метод сжатия : С потерями
Размер потока : 268 Мбайт (0%)
Заголовок : Русский AC3 192 Kbps - Н. Антонов
Язык : Russian
Default : Нет
Forced : Нет

Аудио #11
Идентификатор : 12
Формат : DTS
Формат/Информация : Digital Theater Systems
Профиль формата : MA / Core
Режим : 16
Параметр Endianness формата : Big
Идентификатор кодека : A_DTS
Продолжительность : 3 ч. 14 м.
Вид битрейта : Переменный
Битрейт : Неизвестно / 1509 Кбит/сек
Каналы : 6 каналов
Расположение каналов : Front: L C R, Side: L R, LFE
Частота : 48,0 КГц
Битовая глубина : 24 бит
Метод сжатия : Без потерь / Lossy
Заголовок : Английский DTS-HD MA 3894 Kbps - Оригинал
Язык : English
Default : Нет
Forced : Нет

Аудио #12
Идентификатор : 13
Формат : AC-3
Формат/Информация : Audio Coding 3
Расширение режима : CM (complete main)
Параметр Endianness формата : Big
Идентификатор кодека : A_AC3
Продолжительность : 3 ч. 14 м.
Вид битрейта : Постоянный
Битрейт : 448 Кбит/сек
Каналы : 6 каналов
Расположение каналов : Front: L C R, Side: L R, LFE
Частота : 48,0 КГц
Битовая глубина : 16 бит
Метод сжатия : С потерями
Размер потока : 625 Мбайт (1%)
Заголовок : Украинский AC3 448 Kbps - Дубляж
Язык : Ukrainian
Default : Нет
Forced : Нет

Аудио #13
Идентификатор : 14
Формат : AC-3
Формат/Информация : Audio Coding 3
Расширение режима : CM (complete main)
Параметр Endianness формата : Big
Идентификатор кодека : A_AC3
Продолжительность : 3 ч. 14 м.
Вид битрейта : Постоянный
Битрейт : 192 Кбит/сек
Каналы : 2 канала
Расположение каналов : Front: L R
Частота : 48,0 КГц
Битовая глубина : 16 бит
Метод сжатия : С потерями
Размер потока : 268 Мбайт (0%)
Заголовок : Украинский AC3 192 Kbps - ПМ Новый канал
Язык : Ukrainian
Default : Нет
Forced : Нет

Аудио #14
Идентификатор : 15
Формат : AC-3
Формат/Информация : Audio Coding 3
Расширение режима : CM (complete main)
Параметр Endianness формата : Big
Идентификатор кодека : A_AC3
Продолжительность : 3 ч. 14 м.
Вид битрейта : Постоянный
Битрейт : 192 Кбит/сек
Каналы : 2 канала
Расположение каналов : Front: L R
Частота : 48,0 КГц
Битовая глубина : 16 бит
Метод сжатия : С потерями
Размер потока : 268 Мбайт (0%)
Заголовок : Украинский AC3 192 Kbps - ПМ 1+1
Язык : Ukrainian
Default : Нет
Forced : Нет

Текст #1
Идентификатор : 16
Формат : UTF-8
Идентификатор кодека : S_TEXT/UTF8
Идентификатор кодека/Информация : UTF-8 Plain Text
Заголовок : Русские forced, Blu-ray CEE
Язык : Russian
Default : Да
Forced : Нет

Текст #2
Идентификатор : 17
Формат : UTF-8
Идентификатор кодека : S_TEXT/UTF8
Идентификатор кодека/Информация : UTF-8 Plain Text
Заголовок : Русские , Blu-ray CEE
Язык : Russian
Default : Нет
Forced : Нет

Текст #3
Идентификатор : 18
Формат : UTF-8
Идентификатор кодека : S_TEXT/UTF8
Идентификатор кодека/Информация : UTF-8 Plain Text
Заголовок : Русские R5
Язык : Russian
Default : Нет
Forced : Нет

Текст #4
Идентификатор : 19
Формат : UTF-8
Идентификатор кодека : S_TEXT/UTF8
Идентификатор кодека/Информация : UTF-8 Plain Text
Заголовок : Украинские captions, Blu-ray CEE
Язык : Ukrainian
Default : Нет
Forced : Нет

Текст #5
Идентификатор : 20
Формат : UTF-8
Идентификатор кодека : S_TEXT/UTF8
Идентификатор кодека/Информация : UTF-8 Plain Text
Заголовок : Украинские Blu-ray CEE
Язык : Ukrainian
Default : Нет
Forced : Нет

Текст #6
Идентификатор : 21
Формат : UTF-8
Идентификатор кодека : S_TEXT/UTF8
Идентификатор кодека/Информация : UTF-8 Plain Text
Заголовок : Английские
Язык : English
Default : Нет
Forced : Нет

Меню
00:00:00.000 : en:00:00:00.000
00:01:24.376 : en:00:01:24.376
00:04:39.988 : en:00:04:39.988
00:08:26.131 : en:00:08:26.131
00:10:46.771 : en:00:10:46.771
00:12:52.647 : en:00:12:52.647
00:16:52.428 : en:00:16:52.428
00:20:07.748 : en:00:20:07.748
00:23:38.876 : en:00:23:38.876
00:26:26.543 : en:00:26:26.543
00:29:03.366 : en:00:29:03.366
00:29:37.526 : en:00:29:37.526
00:34:59.931 : en:00:34:59.931
00:36:48.623 : en:00:36:48.623
00:42:59.160 : en:00:42:59.160
00:45:26.098 : en:00:45:26.098
00:47:11.620 : en:00:47:11.620
00:53:33.043 : en:00:53:33.043
00:56:47.988 : en:00:56:47.988
01:05:32.053 : en:01:05:32.053
01:10:19.965 : en:01:10:19.965
01:14:06.358 : en:01:14:06.358
01:16:10.691 : en:01:16:10.691
01:19:59.044 : en:01:19:59.044
01:22:50.507 : en:01:22:50.507
01:23:40.056 : en:01:23:40.056
01:28:21.629 : en:01:28:21.629
01:29:19.854 : en:01:29:19.854
01:32:52.275 : en:01:32:52.275
01:36:59.104 : en:01:36:59.104
01:44:41.149 : en:01:44:41.149
01:46:21.041 : en:01:46:21.041
01:47:58.847 : en:01:47:58.847
01:50:11.104 : en:01:50:11.104
01:52:21.401 : en:01:52:21.401
01:53:54.327 : en:01:53:54.327
01:55:21.831 : en:01:55:21.831
01:56:10.880 : en:01:56:10.880
01:57:53.232 : en:01:57:53.232
02:06:38.340 : en:02:06:38.340
02:08:49.972 : en:02:08:49.972
02:11:22.082 : en:02:11:22.082
02:15:42.550 : en:02:15:42.550
02:19:43.458 : en:02:19:43.458
02:21:24.559 : en:02:21:24.559
02:25:28.761 : en:02:25:28.761
02:27:28.422 : en:02:27:28.422
02:29:07.271 : en:02:29:07.271
02:29:56.695 : en:02:29:56.695
02:33:31.535 : en:02:33:31.535
02:36:52.360 : en:02:36:52.360
02:38:33.878 : en:02:38:33.878
02:40:34.666 : en:02:40:34.666
02:45:00.640 : en:02:45:00.640
02:47:48.808 : en:02:47:48.808
02:49:22.526 : en:02:49:22.526
02:52:09.610 : en:02:52:09.610
02:53:41.327 : en:02:53:41.327
02:57:53.495 : en:02:57:53.495
02:59:35.305 : en:02:59:35.305
03:01:29.252 : en:03:01:29.252
03:03:13.648 : en:03:03:13.648
03:04:57.877 : en:03:04:57.877
03:07:19.644 : en:03:07:19.644



_________________
Проголосуй за трекер Открытый торрент трекер - RUS-MEDIA.ORG

Проголосуй Открытый торрент трекер - RUS-MEDIA.ORG


Вернуться к началу
 Профиль Отправить личное сообщение  
 
   Похожие торренты   Автор   Торрент   Размер 
В этой теме нет новых непрочитанных сообщений. Титаник / Titanic [Драма, катастрофа, мелодрама, 1997] BDRip-HEVC 720p, Dub [Open Matte] [60 fps]

salma3

0 | 0

7.82 ГБ

В этой теме нет новых непрочитанных сообщений. Гаттака / Gattaca [фантастика, драма, мелодрама, 1997] WEB-DL 1080p, Dub [Open Matte]

salma3

0 | 0

12.51 ГБ

В этой теме нет новых непрочитанных сообщений. Гаттака / Gattaca [фантастика, драма, мелодрама, 1997] WEB-DLRip-AVC, Dub [Open Matte]

salma3

4 | 13

1.41 ГБ

В этой теме нет новых непрочитанных сообщений. Титаник / Titanic [драма, мелодрама, история, 1953] BDRip, MVO

salma3

72 | 16

1.45 ГБ

В этой теме нет новых непрочитанных сообщений. Аполлон 13 / Apollo 13 [Драма, фильм-катастрофа, история, 1995] HDRip-AVC, Dub [Open Matte]

salma3

8 | 1

747.4 МБ

В этой теме нет новых непрочитанных сообщений. Ночное дежурство / Nightwatch [ужасы, триллер, драма, 1997] WEB-DL 1080p, Dvo [Open Matte]

salma3

0 | 0

12.7 ГБ

В этой теме нет новых непрочитанных сообщений. Ю-571 / U-571 [Боевик, триллер, военный, 2000] BDRemux 1080p, Dub [Open Matte]

salma3

0 | 0

41.13 ГБ


Начать новую тему Ответить на тему  [ 1 сообщение ] 




Для Мосгорсуда, Роскомнадзора и рекламодателей:: mosgorsud-torrent[собачка]yandex.ru
cron