Торрент файл
скачать торрент магнет ссылка Добавлен: 29 сен 2017, 12:48
Размер: 6.8 ГБ
Сидеров: 11
Личеров: 13
Статус: (salma3)
Автор

СообщениеДобавлено: 29 сен 2017, 12:48 

Не в сети
Супермодератор
Аватара пользователя
Дата регистрации:
15 фев 2012, 16:44
Возраст: 28
Спасибо: 6644 / 2146
Сообщения: 45843
Год выхода: 1981
Жанр: ужасы, триллер
Режиссер: Джефф Либерман

В ролях: Джордж Кеннеди, Майк Келлин, Крис Леммон, Грегг Генри, Дебора Бенсон, Ральф Сеймур, Кэти Пауэлл, Джон Хансейкер, Чарльз Бартлетт, Джейми Роуз, ...

О фильме: Группа молодых людей в количестве пяти человек отправляется путешествовать по горам да по скалам. Местный шериф отговаривает их от этой «неудачной» затеи, но молодежь, естественно, не послушалась. И как всегда бывает потом очень об этом пожалела. В лесу обитало двое жутких здоровенных брата-близнеца, вооруженных мачете…



Страна: США
Продолжительность: 01:30:30
Перевод: Авторский (одноголосый, закадровый) Гаврилов Андрей Юрьевич
- Любительский (одноголосый, закадровый) Васильев Андрей

Кодек: x264
Качество: BDRip 1080p
Видео: 1920x1080, 9732 kbps, 23,976 fps
Аудио #1: AC-3, 2 ch, 192 kbps (Rus) - AVO Гаврилов Андрей Юрьевич
Аудио #2: AC-3, 2 ch, 192 kbps (Rus) - VO Васильев Андрей
Аудио #3: AC-3, 2 ch, 640 kbps (Eng)

Общее
Уникальный идентификатор : 229673997902779948660617739409729646438 (0xACC99A5E42D44FBCB206CC37F201EF66)
Полное имя : Перед самым рассветом (Just Before Dawn) 1981 BDRip 1080p.mkv
Формат : Matroska
Версия формата : Version 2
Размер файла : 6,80 Гбайт
Продолжительность : 1 ч. 30 м.
Общий поток : 10,8 Мбит/сек
Дата кодирования : UTC 2017-08-26 13:31:00
Программа кодирования : mkvmerge v4.0.0 ('The Stars were mine') сборка от Jun 6 2010 16:18:42
Библиотека кодирования : libebml v1.0.0 + libmatroska v1.0.0

Видео
Идентификатор : 1
Формат : AVC
Формат/Информация : Advanced Video Codec
Профиль формата : High@L4.1
Параметр CABAC формата : Да
Параметр ReFrames формата : 4 кадра
Идентификатор кодека : V_MPEG4/ISO/AVC
Продолжительность : 1 ч. 30 м.
Битрейт : 9732 Кбит/сек
Ширина : 1920 пикселей
Высота : 1080 пикселей
Соотношение сторон : 16:9
Режим частоты кадров : Постоянный
Частота кадров : 23,976 (24000/1001) кадра/сек
Цветовое пространство : YUV
Субдискретизация насыщенности : 4:2:0
Битовая глубина : 8 бит
Тип развёртки : Прогрессивная
Бит/(Пиксели*Кадры) : 0.196
Размер потока : 6,02 Гбайт (88%)
Библиотека кодирования : x264 core 152 r2851kMod ba24899
Настройки программы : cabac=1 / ref=4 / deblock=1:-3:-3 / analyse=0x3:0x133 / me=umh / subme=8 / psy=1 / fade_compensate=0.00 / psy_rd=1.00:0.00 / mixed_ref=1 / me_range=16 / chroma_me=1 / trellis=1 / 8x8dct=1 / cqm=0 / deadzone=21,11 / fast_pskip=0 / chroma_qp_offset=-2 / threads=6 / lookahead_threads=1 / sliced_threads=0 / nr=0 / decimate=1 / interlaced=0 / bluray_compat=0 / constrained_intra=0 / bframes=3 / b_pyramid=2 / b_adapt=1 / b_bias=0 / direct=3 / weightb=1 / open_gop=0 / weightp=2 / keyint=250 / keyint_min=23 / scenecut=40 / intra_refresh=0 / rc_lookahead=50 / rc=2pass / mbtree=1 / bitrate=9732 / ratetol=1.0 / qcomp=0.60 / qpmin=0 / qpmax=69 / qpstep=4 / cplxblur=20.0 / qblur=0.5 / vbv_maxrate=62500 / vbv_bufsize=78125 / nal_hrd=none / filler=0 / ip_ratio=1.40 / aq=1:1.00
Язык : English
Default : Нет
Forced : Нет

Аудио #1
Идентификатор : 2
Формат : AC-3
Формат/Информация : Audio Coding 3
Расширение режима : CM (complete main)
Параметр Endianness формата : Big
Идентификатор кодека : A_AC3
Продолжительность : 1 ч. 30 м.
Вид битрейта : Постоянный
Битрейт : 192 Кбит/сек
Каналы : 2 канала
Расположение каналов : Front: L R
Частота : 48,0 КГц
Частота кадров : 31,250 кадров/сек (1536 spf)
Метод сжатия : С потерями
Размер потока : 124 Мбайт (2%)
Заголовок : AVO Гаврилов Андрей Юрьевич
Язык : Russian
Default : Нет
Forced : Нет

Аудио #2
Идентификатор : 3
Формат : AC-3
Формат/Информация : Audio Coding 3
Расширение режима : CM (complete main)
Параметр Endianness формата : Big
Идентификатор кодека : A_AC3
Продолжительность : 1 ч. 30 м.
Вид битрейта : Постоянный
Битрейт : 192 Кбит/сек
Каналы : 2 канала
Расположение каналов : Front: L R
Частота : 48,0 КГц
Частота кадров : 31,250 кадров/сек (1536 spf)
Метод сжатия : С потерями
Размер потока : 124 Мбайт (2%)
Заголовок : VO Васильев Андрей
Язык : Russian
Default : Нет
Forced : Нет

Аудио #3
Идентификатор : 4
Формат : AC-3
Формат/Информация : Audio Coding 3
Расширение режима : CM (complete main)
Параметр Endianness формата : Big
Идентификатор кодека : A_AC3
Продолжительность : 1 ч. 30 м.
Вид битрейта : Постоянный
Битрейт : 640 Кбит/сек
Каналы : 2 канала
Расположение каналов : Front: L R
Частота : 48,0 КГц
Частота кадров : 31,250 кадров/сек (1536 spf)
Метод сжатия : С потерями
Размер потока : 414 Мбайт (6%)
Язык : English
Default : Нет
Forced : Нет



_________________
Проголосуй за трекер Открытый торрент трекер - RUS-MEDIA.ORG

Проголосуй Открытый торрент трекер - RUS-MEDIA.ORG



реклама партнёра


Вернуться к началу
 Профиль Отправить личное сообщение  
 
   Похожие торренты   Автор   Торрент   Размер 
В этой теме нет новых непрочитанных сообщений. От заката до рассвета / From Dusk Till Dawn [ужасы, фэнтези, боевик, триллер, 1996] BDRip 1080p, Mvo

salma3

6 | 3

21.22 ГБ

В этой теме нет новых непрочитанных сообщений. Последний экзамен / Final Exam [Ужасы, триллер, 1981] BDRip 1080p, Avo

salma3

36 | 23

8.07 ГБ

В этой теме нет новых непрочитанных сообщений. Перед рассветом / Before Sunrise [драма, мелодрама, 1995] BDRip 1080p, Mvo+Dvo+Avo+Sub

salma3

59 | 58

9.03 ГБ

В этой теме нет новых непрочитанных сообщений. Вой / The Howling [ужасы, 1981] BDRip 1080p, Mvo+Avo+Sub

salma3

20 | 26

8.3 ГБ

В этой теме нет новых непрочитанных сообщений. Самый страшный фильм 3D / Dead Before Dawn 3D [ужасы, комедия, приключения, 2012] BDRip 1080p, Dub

salma3

62 | 20

7.22 ГБ

В этой теме нет новых непрочитанных сообщений. Клуб монстров / The Monster Club [ужасы, комедия, 1981] BDRip 1080p, Avo

salma3

28 | 12

7.35 ГБ

В этой теме нет новых непрочитанных сообщений. Змеиный яд / Venom [ужасы, триллер, 1981] BDRip, Avo

salma3

16 | 2

1.45 ГБ


Начать новую тему Ответить на тему  [ 1 сообщение ] 




Для Мосгорсуда, Роскомнадзора и рекламодателей:: mosgorsud-torrent[собачка]yandex.ru