COVID-19 - Последняя информация о коронавирусе на сайте Минздрава




Торрент файл
скачать торрент магнет ссылка Добавлен: 29 сен 2017, 12:27
Размер: 30.1 ГБ
Сидеров: 3
Личеров: 19
Статус: (salma3)
Автор

СообщениеДобавлено: 29 сен 2017, 12:27 

Не в сети
Супермодератор
Аватара пользователя
Дата регистрации:
15 фев 2012, 16:44
Возраст: 31
Спасибо: 8272 / 2148
Сообщения: 96455
Год выхода: 2005
Жанр: Боевик, приключения, вестерн
Режиссер: Мартин Кэмпбелл

В ролях: Антонио Бандерас, Кэтрин Зета-Джонс, Густаво Санчез-Парра, Адриан Алонсо, Ник Чинланд, Джованна Закариас, Карлос Кобос, Альберто Рейс, Майкл Эмерсон, Шулер Хенсли, Педро Армендариз мл.,

О фильме:
Прошло десять лет с момента окончания первого фильма. У Алехандро де ла Вега (Мурьетта в первом фильме) растёт сын, которого он назвал в память убитого брата Хоакином. Алехандро обещает своей жене Элене расстаться с маской Зорро и вечными приключениями и зажить спокойной жизнью дворянина, но сдержать обещание не может, так как над всей Америкой нависла угроза от тайного общества рыцарей Арагона, разрубить зловещие пути которого способен только всесильный Зорро.



Страна: США
Продолжительность: 02:10:27
Перевод: Дублированный, профессиональный многоголосый, профессиональный двухголосый, авторский

Файл
Кодек: MPEG-4 AVC
Качество: BDRemux 1080p
Видео: 27100 Кбит/с, 1920x1080, 23.976 кадр/с
Аудио 1: Английский: TrueHD 5.1, 48 kHz, 24 bit, 3557 kbps lossless, (AC3 Embedded: 5.1 / 48 kHz / 640 kbps / DN -4dB) -Оригинал
Аудио 2: Русский: AC3 5.1, 48 kHz, 640 kbps - Дубляж
Аудио 3: Русский: AC3 5.1, 48 kHz, 384 kbps - Авторский (Гаврилов)
Аудио 4: Русский: AC3 5.1, 48 kHz, 448 kbps - Профессиональный двухголосый (П.Гланц и И.Королева)
Аудио 5: Русский: AC3 5.1, 48 kHz, 448 kbps - Профессиональный многоголосый (Tycoon)
Аудио 6: Украинский: AC3 5.1, 48 kHz, 384 kbps - Профессиональный многоголосый (Украинский ТРК )
Субтитры: Русские, английские
Главы: есть


Общее
Уникальный идентификатор : 204836664433102831213574592621251953717 (0x9A1A1B486F34FA2C88A4286A55DC8435)
Полное имя : D:\РЕМУКС с\Легенда Зорро.BDRemux..mkv
Формат : Matroska
Версия формата : Version 4 / Version 2
Размер файла : 30,1 Гбайт
Продолжительность : 2 ч. 10 м.
Режим общего битрейта : Переменный
Общий поток : 33,0 Мбит/сек
Дата кодирования : UTC 2015-09-01 12:12:29
Программа кодирования : mkvmerge v6.1.0 ('Old Devil') built on Mar 4 2013 09:10:42
Библиотека кодирования : libebml v1.3.0 + libmatroska v1.4.0

Видео
Идентификатор : 1
Формат : AVC
Формат/Информация : Advanced Video Codec
Профиль формата : High@L4.1
Параметр CABAC формата : Да
Параметр ReFrames формата : 2 кадра
Идентификатор кодека : V_MPEG4/ISO/AVC
Продолжительность : 2 ч. 10 м.
Вид битрейта : Переменный
Ширина : 1920 пикселей
Высота : 1080 пикселей
Соотношение сторон : 16:9
Режим частоты кадров : Постоянный
Частота кадров : 23,976 кадра/сек
Цветовое пространство : YUV
Субдискретизация насыщенности : 4:2:0
Битовая глубина : 8 бит
Тип развёртки : Прогрессивная
Заголовок : MPEG-4 AVC, 27100 Кбит/с, 1920x1080, 23.976 кадр/с
Default : Да
Forced : Нет

Аудио #1
Идентификатор : 2
Формат : TrueHD
Идентификатор кодека : A_TRUEHD
Продолжительность : 2 ч. 10 м.
Вид битрейта : Переменный
Максимальный битрейт : 5445 Кбит/сек
Каналы : 6 каналов
Расположение каналов : Front: L C R, Side: L R, LFE
Частота : 48,0 КГц
Метод сжатия : Без потерь
Заголовок : Оригинал TrueHD 3557
Язык : English
Default : Нет
Forced : Нет

Аудио #2
Идентификатор : 3
Формат : AC-3
Формат/Информация : Audio Coding 3
Расширение режима : CM (complete main)
Параметр Endianness формата : Big
Идентификатор кодека : A_AC3
Продолжительность : 2 ч. 10 м.
Вид битрейта : Постоянный
Битрейт : 640 Кбит/сек
Каналы : 6 каналов
Расположение каналов : Front: L C R, Side: L R, LFE
Частота : 48,0 КГц
Битовая глубина : 16 бит
Метод сжатия : С потерями
Размер потока : 597 Мбайт (2%)
Заголовок : Дубляж АСЗ 640
Язык : Russian
Default : Да
Forced : Нет

Аудио #3
Идентификатор : 4
Формат : AC-3
Формат/Информация : Audio Coding 3
Расширение режима : CM (complete main)
Параметр Endianness формата : Big
Идентификатор кодека : A_AC3
Продолжительность : 2 ч. 10 м.
Вид битрейта : Постоянный
Битрейт : 384 Кбит/сек
Каналы : 6 каналов
Расположение каналов : Front: L C R, Side: L R, LFE
Частота : 48,0 КГц
Битовая глубина : 16 бит
Метод сжатия : С потерями
Размер потока : 358 Мбайт (1%)
Заголовок : AVO.GAVRILOV ~384.00 kbps avg
Язык : Russian
Default : Нет
Forced : Нет

Аудио #4
Идентификатор : 5
Формат : AC-3
Формат/Информация : Audio Coding 3
Расширение режима : CM (complete main)
Параметр Endianness формата : Big
Идентификатор кодека : A_AC3
Продолжительность : 2 ч. 10 м.
Вид битрейта : Постоянный
Битрейт : 448 Кбит/сек
Каналы : 6 каналов
Расположение каналов : Front: L C R, Side: L R, LFE
Частота : 48,0 КГц
Битовая глубина : 16 бит
Метод сжатия : С потерями
Размер потока : 418 Мбайт (1%)
Заголовок : 448.00 kbps avg двухголосый закадровый (П.Гланц и И.Королева)
Язык : Russian
Default : Нет
Forced : Нет

Аудио #5
Идентификатор : 6
Формат : AC-3
Формат/Информация : Audio Coding 3
Расширение режима : CM (complete main)
Параметр Endianness формата : Big
Идентификатор кодека : A_AC3
Продолжительность : 2 ч. 10 м.
Вид битрейта : Постоянный
Битрейт : 448 Кбит/сек
Каналы : 6 каналов
Расположение каналов : Front: L C R, Side: L R, LFE
Частота : 48,0 КГц
Битовая глубина : 16 бит
Метод сжатия : С потерями
Размер потока : 418 Мбайт (1%)
Заголовок : 448.00 kbps avg многоголосый закадровый (Tycoon)
Язык : Russian
Default : Нет
Forced : Нет

Аудио #6
Идентификатор : 7
Формат : AC-3
Формат/Информация : Audio Coding 3
Расширение режима : CM (complete main)
Параметр Endianness формата : Big
Идентификатор кодека : A_AC3
Продолжительность : 2 ч. 10 м.
Вид битрейта : Постоянный
Битрейт : 384 Кбит/сек
Каналы : 6 каналов
Расположение каналов : Front: L C R, Side: L R, LFE
Частота : 48,0 КГц
Битовая глубина : 16 бит
Метод сжатия : С потерями
Размер потока : 358 Мбайт (1%)
Заголовок : Профессиональный (многоголосый, закадровый) Украинский ТРК Украина~384.00 kbps avg
Язык : Ukrainian
Default : Нет
Forced : Нет

Текст #1
Идентификатор : 8
Формат : UTF-8
Идентификатор кодека : S_TEXT/UTF8
Идентификатор кодека/Информация : UTF-8 Plain Text
Заголовок : Русские
Язык : Russian
Default : Нет
Forced : Нет

Текст #2
Идентификатор : 9
Формат : UTF-8
Идентификатор кодека : S_TEXT/UTF8
Идентификатор кодека/Информация : UTF-8 Plain Text
Заголовок : Английские
Язык : English
Default : Нет
Forced : Нет

Меню
00:00:00.000 : :Chapter 01
00:06:37.647 : :Chapter 02
00:13:19.673 : :Chapter 03
00:22:59.419 : :Chapter 04
00:29:41.613 : :Chapter 05
00:38:02.863 : :Chapter 06
00:45:24.972 : :Chapter 07
00:54:12.082 : :Chapter 08
01:02:08.725 : :Chapter 09
01:10:41.987 : :Chapter 10
01:19:41.026 : :Chapter 11
01:25:30.792 : :Chapter 12
01:30:43.604 : :Chapter 13
01:36:21.525 : :Chapter 14
01:43:26.533 : :Chapter 15
01:49:48.582 : :Chapter 16



_________________
Проголосуй за трекер Открытый торрент трекер - RUS-MEDIA.ORG

Проголосуй Открытый торрент трекер - RUS-MEDIA.ORG


Скачать книги и аудио книги через торрент


Вернуться к началу
 Профиль Отправить личное сообщение  
 
   Похожие торренты   Автор   Торрент   Размер 
В этой теме нет новых непрочитанных сообщений. Легенда Зорро / The Legend of Zorro [боевик, приключения, вестерн, 2005] HDRip, Dub

salma3

20 | 5

1.45 ГБ

В этой теме нет новых непрочитанных сообщений. Маска Зорро / The Mask of Zorro [боевик, приключения, вестерн, 1998] BDRip, Dub

salma3

5 | 3

1.46 ГБ

В этой теме нет новых непрочитанных сообщений. Зорро / Zorro [Приключения, Вестерн, Боевик, 1975] WEB-DLRip 720p, Dub [советский]

salma3

0 | 0

3.3 ГБ

В этой теме нет новых непрочитанных сообщений. Тарзан. Легенда / The Legend of Tarzan [Боевик, драма, мелодрама, 2016] BDRemux 1080p, Dub [Лицензия]

salma3

0 | 0

34.66 ГБ

В этой теме нет новых непрочитанных сообщений. Легенда / Legend [Триллер, драма, криминал, 2015] BDRemux 1080p, Dub [Лицензия]

salma3

0 | 0

26.58 ГБ

В этой теме нет новых непрочитанных сообщений. Легенда об Искателе / Legend of the Seeker [S01] [боевик, фэнтези, приключения, 2008] WEBRip-HEVC 1080p, Dub [Пифагор]

salma3

1 | 0

38.55 ГБ

В этой теме нет новых непрочитанных сообщений. Легенда об одиноком рейнджере / The Legend of the Lone Ranger [приключения, вестерн, 1981] HDRip-AVC, Avo

salma3

0 | 0

1.31 ГБ


Начать новую тему Ответить на тему  [ 1 сообщение ] 




Для Мосгорсуда, Роскомнадзора и рекламодателей:: rstracker[собака]yandex.ru
cron