Торрент файл
скачать торрент магнет ссылка Добавлен: 29 сен 2017, 12:21
Размер: 29.38 ГБ
Сидеров: 8
Личеров: 24
Статус: (salma3)
Автор

СообщениеДобавлено: 29 сен 2017, 12:21 

Не в сети
Супермодератор
Аватара пользователя
Дата регистрации:
15 фев 2012, 16:44
Возраст: 28
Спасибо: 6656 / 2146
Сообщения: 46014
Год выхода: 2010
Жанр: Боевик, фантастика
Режиссер: Альберт Хьюз, Аллен Хьюз

В ролях: Дензел Вашингтон, Гэри Олдман, Мила Кунис, Рэй Стивенсон, Дженнифер Билз, Ивэн Джонс, Джо Пинг, Фрэнсис Де Ла Тур, Майкл Гэмбон, Том Уэйтс

О фильме:
После вселенской катастрофы Америка превратилась в выжженную пустыню. По бескрайним дорогам, кишащим бандами, враждующими между собой за воду и еду, странствует мудрый Илай. Однажды он прибывает в мрачные края, где когда-то была цветущая Калифорния, а теперь это сущий ад, где бесчинствует тиран Карнеги.



Страна: США
Продолжительность: 01:57:36
Перевод: Дублированный, авторский

Файл
Кодек: MPEG-4 AVC
Качество: BDRemux 1080p
Видео: 24931 Кбит/с, 1920x1080, 23.976 кадр/с
Аудио (1): Английский - DTS-HD MA, 5.1, 48 kHz, 3281 kbps, 24-bit (DTS Core: 5.1 / 48 kHz / 1509 kbps / 24-bit) - Оригинал
Аудио (2): Русский - AC3, 5.1, 48 kHz, 384 kbps - Дубляж
Аудио (3): Русский - DTS-HD MA, 5.1, 48 kHz, 3346 kbps, 24-bit (DTS Core: 5.1 / 48 kHz / 1509 kbps / 24-bit) - Авторский (А.Гаврилов)
Аудио (4): Русский - DTS-HD MA, 5.1, 48 kHz, 1918 kbps, 24-bit (DTS Core: 5.1 / 48 kHz / 1509 kbps / 24-bit) - Дубляж
Аудио (5): Русский - DTS, 5.1 ch, 1510 Kbps, 48 KHz - Авторский (Есарев)
Аудио (6): Русский - AC3, 5.1, 48 kHz, 384 kbps - Авторский (Сербин)
Субтитры: Русские, английские
Главы:есть

В конце фильма, когда печатная Библия наконец готова и ее ставят на полку, видно, что рядом стоят религиозные книги Тора,Танах и Коран.
Мелодия, которую постоянно насвистывает Рэдридж, это Cockeye’s Song Энио Морриконе, главная музыкальная тема фильма «Однажды в Америке». Песня, которую Марта крутит на граммофоне, называется «Ring my bell» в исполнении Аниты Уорд.
Ещё до выхода фильма в прокат, геймеры окрестили фильм экранизацией культовой игры «Fallout». Многое в фильме может напомнить игру: атмосфера постапокалиптического мира, рейдеры-людоеды, отдельные общины людей и т. д. Сама история Илая напоминает игру: одинокий «Выходец из Убежища» странствует по атомным пустошам, ради благой цели (В 1-ой части игры — водяной чип, ради спасения Убежища; во 2-ой части игры — ГЭКК (Генератор Эдемских Кущ Компактный), возрождающий природу; в 3-ей части игры — компоненты обоих устройств, для запуска «Проекта Чистота» (комплекса очистки воды в глобальных масштабах). Но, в отличие от «выходцев», Илай нёс не физическое, а духовное благо в виде Библии. Так же сходство есть и в дизайне, так например дизайн дома, где Илай пил чай, схож с домом доктора из Fallout: New Vegas.
Сюжет фильма частично заимствует утопическую версию развития мира авторства Рэя Брэдбери, описанной в научно-фантастическом романе «451 градус по Фаренгейту», где главный герой также спасает последнюю оставшуюся на планете Библию от сожжения.
Сюжет фильма почти полностью схож с сюжетом фильма Шестиструнный самурай, в котором главный герой так же защищает свою веру (рок-н-ролл) с помощью меча.
В номере гостиницы, где останавливается Илай, на стене висит постер фильма «Парень и его собака». Этот фильм основан на одноименной повести Харлана Эллисона, его действие также происходит в постапокалиптическом мире.
В кабинете Карнаги висит карта мира, составленная еще до начала 90-х — на ней присутствует Советский Союз.

Общее
Уникальный идентификатор : 218690785683918920119673576952124245576 (0xA4865032879EF2979689D1C6BCBD8648)
Полное имя : D:\РЕМУКС!!!!!\Книга Илая.BDRemux.mkv
Формат : Matroska
Версия формата : Version 4 / Version 2
Размер файла : 29,4 Гбайт
Продолжительность : 1 ч. 57 м.
Режим общего битрейта : Переменный
Общий поток : 35,7 Мбит/сек
Название фильма : Книга Илая.BDRemux.thx:SPOMOPS.
Дата кодирования : UTC 2016-02-03 07:20:17
Программа кодирования : mkvmerge v6.1.0 ('Old Devil') built on Mar 4 2013 09:10:42
Библиотека кодирования : libebml v1.3.0 + libmatroska v1.4.0

Видео
Идентификатор : 1
Формат : AVC
Формат/Информация : Advanced Video Codec
Профиль формата : High@L4.1
Параметр CABAC формата : Да
Параметр ReFrames формата : 2 кадра
Идентификатор кодека : V_MPEG4/ISO/AVC
Продолжительность : 1 ч. 57 м.
Вид битрейта : Переменный
Ширина : 1920 пикселей
Высота : 1080 пикселей
Соотношение сторон : 16:9
Режим частоты кадров : Постоянный
Частота кадров : 23,976 кадра/сек
Цветовое пространство : YUV
Субдискретизация насыщенности : 4:2:0
Битовая глубина : 8 бит
Тип развёртки : Прогрессивная
Default : Да
Forced : Нет

Аудио #1
Идентификатор : 2
Формат : DTS
Формат/Информация : Digital Theater Systems
Профиль формата : MA / Core
Режим : 16
Параметр Endianness формата : Big
Идентификатор кодека : A_DTS
Продолжительность : 1 ч. 57 м.
Вид битрейта : Переменный
Битрейт : Неизвестно / 1509 Кбит/сек
Каналы : 6 каналов
Расположение каналов : Front: L C R, Side: L R, LFE
Частота : 48,0 КГц
Битовая глубина : 24 бит
Метод сжатия : Без потерь / Lossy
Заголовок : Английский DTS-HD MA, 3281 kbps - Оригинал
Язык : English
Default : Нет
Forced : Нет

Аудио #2
Идентификатор : 3
Формат : AC-3
Формат/Информация : Audio Coding 3
Расширение режима : CM (complete main)
Параметр Endianness формата : Big
Идентификатор кодека : A_AC3
Продолжительность : 1 ч. 57 м.
Вид битрейта : Постоянный
Битрейт : 384 Кбит/сек
Каналы : 6 каналов
Расположение каналов : Front: L C R, Side: L R, LFE
Частота : 48,0 КГц
Битовая глубина : 16 бит
Метод сжатия : С потерями
Размер потока : 323 Мбайт (1%)
Заголовок : Русский AC3, 384 kbps - Дубляж
Язык : Russian
Default : Нет
Forced : Нет

Аудио #3
Идентификатор : 4
Формат : DTS
Формат/Информация : Digital Theater Systems
Профиль формата : MA / Core
Режим : 16
Параметр Endianness формата : Big
Идентификатор кодека : A_DTS
Продолжительность : 1 ч. 57 м.
Вид битрейта : Переменный
Битрейт : Неизвестно / 1509 Кбит/сек
Каналы : 6 каналов
Расположение каналов : Front: L C R, Side: L R, LFE
Частота : 48,0 КГц
Битовая глубина : 24 бит
Метод сжатия : Без потерь / Lossy
Заголовок : Русский DTS-HD MA, 3346 kbps - А.Гаврилов
Язык : Russian
Default : Нет
Forced : Нет

Аудио #4
Идентификатор : 5
Формат : DTS
Формат/Информация : Digital Theater Systems
Профиль формата : MA / Core
Режим : 16
Параметр Endianness формата : Big
Идентификатор кодека : A_DTS
Продолжительность : 1 ч. 57 м.
Вид битрейта : Переменный
Битрейт : Неизвестно / 1509 Кбит/сек
Каналы : 6 каналов
Расположение каналов : Front: L C R, Side: L R, LFE
Частота : 48,0 КГц
Битовая глубина : 16 бит
Метод сжатия : Без потерь / Lossy
Заголовок : Русский DTS-HD MA, 1918 kbps - Дубляж
Язык : Russian
Default : Да
Forced : Нет

Аудио #5
Идентификатор : 6
Формат : DTS
Формат/Информация : Digital Theater Systems
Режим : 16
Параметр Endianness формата : Big
Идентификатор кодека : A_DTS
Продолжительность : 1 ч. 57 м.
Вид битрейта : Постоянный
Битрейт : 1510 Кбит/сек
Каналы : 6 каналов
Расположение каналов : Front: L C R, Side: L R, LFE
Частота : 48,0 КГц
Битовая глубина : 24 бит
Метод сжатия : С потерями
Размер потока : 1,24 Гбайт (4%)
Заголовок : Русский DTS, 1536 kbps - Д. Есарев
Язык : Russian
Default : Нет
Forced : Нет

Аудио #6
Идентификатор : 7
Формат : AC-3
Формат/Информация : Audio Coding 3
Расширение режима : CM (complete main)
Параметр Endianness формата : Big
Идентификатор кодека : A_AC3
Продолжительность : 1 ч. 57 м.
Вид битрейта : Постоянный
Битрейт : 384 Кбит/сек
Каналы : 6 каналов
Расположение каналов : Front: L C R, Side: L R, LFE
Частота : 48,0 КГц
Битовая глубина : 16 бит
Метод сжатия : С потерями
Размер потока : 323 Мбайт (1%)
Заголовок : Русский AC3, 384 kbps - Сербин
Язык : Russian
Default : Нет
Forced : Нет

Текст #1
Идентификатор : 8
Формат : UTF-8
Идентификатор кодека : S_TEXT/UTF8
Идентификатор кодека/Информация : UTF-8 Plain Text
Заголовок : Русские
Язык : Russian
Default : Нет
Forced : Нет

Текст #2
Идентификатор : 9
Формат : ASS
Идентификатор кодека : S_TEXT/ASS
Идентификатор кодека/Информация : Advanced Sub Station Alpha
Метод сжатия : Без потерь
Заголовок : Английские
Язык : English
Default : Нет
Forced : Нет

Меню
00:00:00.000 : :Chapter 01
00:08:20.208 : :Chapter 02
00:15:40.648 : :Chapter 03
00:21:36.336 : :Chapter 04
00:27:44.996 : :Chapter 05
00:33:24.168 : :Chapter 06
00:39:14.518 : :Chapter 07
00:45:21.885 : :Chapter 08
00:54:17.295 : :Chapter 09
01:02:05.805 : :Chapter 10
01:11:50.848 : :Chapter 11
01:20:52.597 : :Chapter 12
01:29:36.412 : :Chapter 13
01:36:44.048 : :Chapter 14
01:41:12.983 : :Chapter 15
01:45:08.552 : :Chapter 16



_________________
Проголосуй за трекер Открытый торрент трекер - RUS-MEDIA.ORG

Проголосуй Открытый торрент трекер - RUS-MEDIA.ORG



реклама партнёра


Вернуться к началу
 Профиль Отправить личное сообщение  
 
   Похожие торренты   Автор   Торрент   Размер 
В этой теме нет новых непрочитанных сообщений. Книга Илая / The Book of Eli [Боевик, фантастика, 2010] BDRip-AVC, Dub

salma3

16 | 3

1.46 ГБ

В этой теме нет новых непрочитанных сообщений. Книга Илая / The Book of Eli [Боевик, фантастика, 2010] BDRip 720p, Dub

salma3

1 | 33

5.43 ГБ

В этой теме нет новых непрочитанных сообщений. Потерянные: Книга теней / Nowhere Boys: The Book of Shadows [фантастика, приключения, 2016] WEB-DLRip, Mvo

salma3

467 | 23

1.45 ГБ

В этой теме нет новых непрочитанных сообщений. Книга джунглей / The Jungle Book [Фэнтези, драма, приключения, семейный, 2016] BDRip 1080p, Dub [Лицензия] [3D-Video]

salma3

119 | 29

16.68 ГБ

В этой теме нет новых непрочитанных сообщений. Книга джунглей / The Jungle Book [фэнтези, драма, приключения, семейный, 2016] BDRip 1080p, Dub [чистый звук]

salma3

3342 | 87

7.14 ГБ

В этой теме нет новых непрочитанных сообщений. Книга жизни  / The Book of Life (Хорхе Р. Гутьеррес) [Мультфильм, фэнтези, мелодрама, комедия, приключения, семейный, 2014] BDRip 1080p, Dub [iTunes]

Dracon

18 | 2

8 ГБ

В этой теме нет новых непрочитанных сообщений. Ведьма из Блэр 2: Книга теней / Book of Shadows: Blair Witch 2 [ужасы, фэнтези, триллер, детектив, приключения, 2000] WEBRip 1080p, Dub

salma3

101 | 36

7.12 ГБ


Начать новую тему Ответить на тему  [ 1 сообщение ] 




Для Мосгорсуда, Роскомнадзора и рекламодателей:: mosgorsud-torrent[собачка]yandex.ru