Торрент файл
скачать торрент магнет ссылка Добавлен: 28 сен 2017, 20:08
Размер: 11.08 ГБ
Сидеров: 26
Личеров: 9
Статус: (salma3)
Автор

СообщениеДобавлено: 28 сен 2017, 20:08 

В сети
Супермодератор
Аватара пользователя
Дата регистрации:
15 фев 2012, 16:44
Возраст: 29
Спасибо: 7379 / 2147
Сообщения: 76129
Год выхода: 1992
Жанр: ужасы, боевик, мелодрама
Режиссер: Джон Лэндис

В ролях: Анн Парийо, Роберт Лоджа, Энтони ЛаПалья, Дэвид Провэл, Чазз Пальминтери, Луис Гусман, Анджела Бассетт, Илэйн Кэйган, Рокко Систо, Лео Берместер, Фрэнк Оз, Дарио Ардженто, Линни Куигли, Тони Сирико, Ким Коутс, Маршалл Белл, Дон Риклз, Рон Томас, Том Савини, ...

О фильме: Жертвой очаровательной вампирши Мари чуть было не стал гангстерский босс, питсбургский авторитет. После того как гангстер понял, после «свидания» с Мари, какие возможности открываются перед ним и его командой, городу угрожает беда. Если вампир-Мари и ее друг, тайный агент полиции, не остановят преступников, Питсбург превратится в настоящий ад…



Страна: США
Продолжительность: 01:54:59
Перевод: Профессиональный (многоголосый, закадровый) НТВ

Кодек: x264
Качество: BDRip 1080p
Видео: 1920x1080, 12100 kbps, 23,976 fps
Аудио #1: AC-3, 2 ch, 192 kbps (Rus) - MVO НТВ
Аудио #2: DTS, 2 ch, 1509 kbps (Eng)
Субтитры: Русские, Английские

Общее
Уникальный идентификатор : 216658172144233111382058217515611383822 (0xA2FED89CD1D61001BC6C8285F950E80E)
Полное имя : C:TorrentКровь невинных (Innocent Blood) 1992 BDRip 1080pКровь невинных (Innocent Blood) 1992 BDRip 1080p.mkv
Формат : Matroska
Версия формата : Version 2
Размер файла : 11,1 Гбайт
Продолжительность : 1 ч. 54 м.
Общий поток : 13,8 Мбит/сек
Дата кодирования : UTC 2017-09-28 09:26:17
Программа кодирования : mkvmerge v4.0.0 ('The Stars were mine') сборка от Jun 6 2010 16:18:42
Библиотека кодирования : libebml v1.0.0 + libmatroska v1.0.0

Видео
Идентификатор : 1
Формат : AVC
Формат/Информация : Advanced Video Codec
Профиль формата : High@L4.1
Параметр CABAC формата : Да
Параметр ReFrames формата : 4 кадра
Идентификатор кодека : V_MPEG4/ISO/AVC
Продолжительность : 1 ч. 54 м.
Битрейт : 12,1 Мбит/сек
Ширина : 1920 пикселей
Высота : 1080 пикселей
Соотношение сторон : 16:9
Режим частоты кадров : Постоянный
Частота кадров : 23,976 (24000/1001) кадра/сек
Цветовое пространство : YUV
Субдискретизация насыщенности : 4:2:0
Битовая глубина : 8 бит
Тип развёртки : Прогрессивная
Бит/(Пиксели*Кадры) : 0.243
Размер потока : 9,49 Гбайт (86%)
Библиотека кодирования : x264 core 152 r2851 ba24899
Настройки программы : cabac=1 / ref=4 / deblock=1:-3:-3 / analyse=0x3:0x113 / me=umh / subme=8 / psy=1 / psy_rd=1.00:0.00 / mixed_ref=1 / me_range=16 / chroma_me=1 / trellis=2 / 8x8dct=1 / cqm=0 / deadzone=21,11 / fast_pskip=0 / chroma_qp_offset=-2 / threads=18 / lookahead_threads=3 / sliced_threads=0 / nr=0 / decimate=1 / interlaced=0 / bluray_compat=0 / constrained_intra=0 / bframes=3 / b_pyramid=2 / b_adapt=1 / b_bias=0 / direct=1 / weightb=1 / open_gop=0 / weightp=2 / keyint=250 / keyint_min=23 / scenecut=40 / intra_refresh=0 / rc_lookahead=40 / rc=2pass / mbtree=1 / bitrate=12101 / ratetol=1.0 / qcomp=0.60 / qpmin=0 / qpmax=69 / qpstep=4 / cplxblur=20.0 / qblur=0.5 / ip_ratio=1.40 / aq=1:1.00
Язык : English
Default : Нет
Forced : Нет

Аудио #1
Идентификатор : 2
Формат : AC-3
Формат/Информация : Audio Coding 3
Расширение режима : CM (complete main)
Параметр Endianness формата : Big
Идентификатор кодека : A_AC3
Продолжительность : 1 ч. 54 м.
Вид битрейта : Постоянный
Битрейт : 192 Кбит/сек
Каналы : 2 канала
Расположение каналов : Front: L R
Частота : 48,0 КГц
Частота кадров : 31,250 кадров/сек (1536 spf)
Метод сжатия : С потерями
Размер потока : 158 Мбайт (1%)
Заголовок : MVO НТВ
Язык : Russian
Default : Нет
Forced : Нет

Аудио #2
Идентификатор : 3
Формат : DTS
Формат/Информация : Digital Theater Systems
Режим : 16
Параметр Endianness формата : Big
Идентификатор кодека : A_DTS
Продолжительность : 1 ч. 54 м.
Вид битрейта : Постоянный
Битрейт : 1509 Кбит/сек
Каналы : 2 канала
Расположение каналов : Front: L R
Частота : 48,0 КГц
Частота кадров : 93,750 кадра/сек (512 spf)
Битовая глубина : 24 бит
Метод сжатия : С потерями
Размер потока : 1,21 Гбайт (11%)
Язык : English
Default : Нет
Forced : Нет

Текст #1
Идентификатор : 4
Формат : UTF-8
Идентификатор кодека : S_TEXT/UTF8
Идентификатор кодека/Информация : UTF-8 Plain Text
Заголовок : Forced
Язык : Russian
Default : Нет
Forced : Нет

Текст #2
Идентификатор : 5
Формат : UTF-8
Идентификатор кодека : S_TEXT/UTF8
Идентификатор кодека/Информация : UTF-8 Plain Text
Язык : English
Default : Нет
Forced : Нет

Текст #3
Идентификатор : 6
Формат : UTF-8
Идентификатор кодека : S_TEXT/UTF8
Идентификатор кодека/Информация : UTF-8 Plain Text
Заголовок : SDH
Язык : English
Default : Нет
Forced : Нет



_________________
Проголосуй за трекер Открытый торрент трекер - RUS-MEDIA.ORG

Проголосуй Открытый торрент трекер - RUS-MEDIA.ORG


Вернуться к началу
 Профиль Отправить личное сообщение  
 
   Похожие торренты   Автор   Торрент   Размер 
В этой теме нет новых непрочитанных сообщений. Кровь невинных / Innocent Blood [ужасы, боевик, мелодрама, 1992] BDRip, Avo

salma3

0 | 0

1.46 ГБ

В этой теме нет новых непрочитанных сообщений. Кровь невинных / Innocent Blood [ужасы, боевик, мелодрама,1992] BDRip-AVC, Mvo

salma3

0 | 0

3.36 ГБ

В этой теме нет новых непрочитанных сообщений. Кровь невинных / Innocent Blood [Комедия, ужасы, мистика, 1992] DVDRip-AVC, Mvo

salma3

133 | 34

2.18 ГБ

В этой теме нет новых непрочитанных сообщений. Кровь невинных / Innocent Blood [ужасы, боевик, мелодрама, 1991] BDRemux 1080р, Mvo

salma3

5 | 5

30.18 ГБ

В этой теме нет новых непрочитанных сообщений. Настоящая кровь / True Blood [S07] [фэнтези, триллер, драма, мелодрама, детектив, 2014] BDRip 1080p, Mvo

salma3

13 | 33

45.81 ГБ

В этой теме нет новых непрочитанных сообщений. Приветствие Джаггера / Кровь героев / The Salute Of The Jugger / The blood of heroes [фантастика, боевик, постапокалипсис, 1989] BDRip-HEVC 1080p, Mvo

salma3

15 | 4

3.56 ГБ

В этой теме нет новых непрочитанных сообщений. Дом, где падает кровь / The Dorm That Dripped Blood [ужасы, детектив, 1982] BDRip, Avo

salma3

51 | 15

1.46 ГБ


Начать новую тему Ответить на тему  [ 1 сообщение ] 




Для Мосгорсуда, Роскомнадзора и рекламодателей:: mosgorsud-torrent[собачка]yandex.ru
cron