Торрент файл
скачать торрент магнет ссылка Добавлен: 27 сен 2017, 12:10
Размер: 22.95 ГБ
Сидеров: 5
Личеров: 2
Статус: (salma3)
Автор

СообщениеДобавлено: 27 сен 2017, 12:10 

Не в сети
Супермодератор
Аватара пользователя
Дата регистрации:
15 фев 2012, 16:44
Возраст: 28
Спасибо: 7224 / 2147
Сообщения: 68058
Год выхода: 1996
Жанр: Триллер, ужасы, драма
Режиссер: Джеймс Фоули

В ролях: Марк Уолберг, Риз Уизерспун, Уильям Л. Питерсен, Эми Бреннеман, Алисса Милано, Кристофер Грэй, Трэйси Фрэйм, Гари Райли, Джейсон Кристофер, Джед Риис

О фильме:
Шестнадцатилетняя белокурая красавица Николь идет с подругой в ночной клуб и знакомится там с обаятельным и сексуальным парнем по имени Дэвид. Вскоре невинная первая любовь превращается в одержимость, а Николь становится заложницей агрессивной страсти Дэвида, склонного к припадкам беспричинной ревности. Дэвид избивает друга только за то, что он прошелся с Николь по улице; а когда Николь пытается разорвать отношения с юным тираном, он полностью теряет контроль над своими действиями...



Страна: США
Продолжительность: 01:36:50
Перевод: Дублированный, профессиональный многоголосый, авторский

Файл
Кодек: VC-1
Качество: BDRemux 1080p
Видео: 29311 Кбит/c, 1920x1080, 23.976 кадр/с
Аудио 1: English DTS-HD Master Audio 2824 kbps 5.1 / 48 kHz / 2824 kbps / 24-bit (DTS Core: 5.1 / 48 kHz / 1509 kbps / 24-bit) - Оригинал
Аудио 2: Russian 48 kHz, DTS, 3/2 (L,C,R,l,r) + LFE ch, ~768.00 kbps avg - Дубляж
Аудио 3: Russian: 48 kHz, AC3, 2/0 (L,R) ch, ~192.00 kbps avg - Профессиональный многоголосый (СТС)
Аудио 4: Russian: 48 kHz, AC3, 3/2 (L,C,R,l,r) + LFE ch, ~448.00 kbps avg - Авторский (С.Визгунов)
Аудио 5: Russian: 48 kHz, AC3, 2/0 (L,R) ch, ~192.00 kbps avg - Авторский (П.Карцев)
Аудио 6: Ukrainian: 48 kHz, AC3, 2/0 (L,R) ch, ~192.00 kbps avg - Профессиональный многоголосый (Так Треба Продакшн)
Субтитры: Русские, английские
Главы: есть

Премия канала «MTV», 1997 год
Победитель (1):
Лучшая песня— «Machinehead»
Номинации (1):
Лучший злодей (Марк Уолберг)
Роль Дэвида Макколла в этом фильме стала первой главной ролью начинающего актёра Марка Уолберга.

Общее
Уникальный идентификатор : 171403178343416157981567312399508246678 (0x80F30D26CFDAD32D9C47017813B11096)
Полное имя : D:\РЕМУКС!!!!!\Страх. BDRemux..mkv
Формат : Matroska
Версия формата : Version 4 / Version 2
Размер файла : 23,0 Гбайт
Продолжительность : 1 ч. 36 м.
Режим общего битрейта : Переменный
Общий поток : 33,9 Мбит/сек
Дата кодирования : UTC 2015-09-29 12:57:22
Программа кодирования : mkvmerge v6.1.0 ('Old Devil') built on Mar 4 2013 09:10:42
Библиотека кодирования : libebml v1.3.0 + libmatroska v1.4.0

Видео
Идентификатор : 1
Формат : VC-1
Профиль формата : Advanced@L3
Идентификатор кодека : V_MS/VFW/FOURCC / WVC1
Идентификатор кодека/Подсказка : Microsoft
Продолжительность : 1 ч. 36 м.
Ширина : 1920 пикселей
Высота : 1080 пикселей
Соотношение сторон : 16:9
Режим частоты кадров : Постоянный
Частота кадров : 23,976 кадра/сек
Цветовое пространство : YUV
Субдискретизация насыщенности : 4:2:0
Битовая глубина : 8 бит
Тип развёртки : Прогрессивная
Метод сжатия : С потерями
Default : Да
Forced : Нет

Аудио #1
Идентификатор : 2
Формат : DTS
Формат/Информация : Digital Theater Systems
Профиль формата : MA / Core
Режим : 16
Параметр Endianness формата : Big
Идентификатор кодека : A_DTS
Продолжительность : 1 ч. 36 м.
Вид битрейта : Переменный
Битрейт : Неизвестно / 1509 Кбит/сек
Каналы : 6 каналов
Расположение каналов : Front: L C R, Side: L R, LFE
Частота : 48,0 КГц
Битовая глубина : 24 бит
Метод сжатия : Без потерь / Lossy
Заголовок : Английский - DTS-HD Master Audio 2824 kbps
Язык : English
Default : Нет
Forced : Нет

Аудио #2
Идентификатор : 3
Формат : DTS
Формат/Информация : Digital Theater Systems
Режим : 16
Параметр Endianness формата : Big
Идентификатор кодека : A_DTS
Продолжительность : 1 ч. 36 м.
Вид битрейта : Постоянный
Битрейт : 768 Кбит/сек
Каналы : 6 каналов
Расположение каналов : Front: L C R, Side: L R, LFE
Частота : 48,0 КГц
Битовая глубина : 24 бит
Метод сжатия : С потерями
Размер потока : 532 Мбайт (2%)
Заголовок : Русский - DTS ~768.00 kbps - дубляж
Язык : Russian
Default : Да
Forced : Нет

Аудио #3
Идентификатор : 4
Формат : AC-3
Формат/Информация : Audio Coding 3
Расширение режима : CM (complete main)
Параметр Endianness формата : Big
Идентификатор кодека : A_AC3
Продолжительность : 1 ч. 36 м.
Вид битрейта : Постоянный
Битрейт : 192 Кбит/сек
Каналы : 2 канала
Расположение каналов : Front: L R
Частота : 48,0 КГц
Битовая глубина : 16 бит
Метод сжатия : С потерями
Задержка видео : -42 мс.
Размер потока : 133 Мбайт (1%)
Заголовок : Русский - ~192.00 kbps Многоголосый закадровый, СТС
Язык : Russian
Default : Нет
Forced : Нет

Аудио #4
Идентификатор : 5
Формат : AC-3
Формат/Информация : Audio Coding 3
Расширение режима : CM (complete main)
Параметр Endianness формата : Big
Идентификатор кодека : A_AC3
Продолжительность : 1 ч. 36 м.
Вид битрейта : Постоянный
Битрейт : 448 Кбит/сек
Каналы : 6 каналов
Расположение каналов : Front: L C R, Side: L R, LFE
Частота : 48,0 КГц
Битовая глубина : 16 бит
Метод сжатия : С потерями
Задержка видео : -42 мс.
Размер потока : 310 Мбайт (1%)
Заголовок : Русский - ~448.00 kbps С.Визгунов
Язык : Russian
Default : Нет
Forced : Нет

Аудио #5
Идентификатор : 6
Формат : AC-3
Формат/Информация : Audio Coding 3
Расширение режима : CM (complete main)
Параметр Endianness формата : Big
Идентификатор кодека : A_AC3
Продолжительность : 1 ч. 36 м.
Вид битрейта : Постоянный
Битрейт : 192 Кбит/сек
Каналы : 2 канала
Расположение каналов : Front: L R
Частота : 48,0 КГц
Битовая глубина : 16 бит
Метод сжатия : С потерями
Задержка видео : -42 мс.
Размер потока : 133 Мбайт (1%)
Заголовок : Русский - ~192.00 kbps П.Карцев
Язык : Russian
Default : Нет
Forced : Нет

Аудио #6
Идентификатор : 7
Формат : AC-3
Формат/Информация : Audio Coding 3
Расширение режима : CM (complete main)
Параметр Endianness формата : Big
Идентификатор кодека : A_AC3
Продолжительность : 1 ч. 36 м.
Вид битрейта : Постоянный
Битрейт : 192 Кбит/сек
Каналы : 2 канала
Расположение каналов : Front: L R
Частота : 48,0 КГц
Битовая глубина : 16 бит
Метод сжатия : С потерями
Задержка видео : -42 мс.
Размер потока : 133 Мбайт (1%)
Заголовок : Украинский - ~192.00 kbps
Язык : Ukrainian
Default : Нет
Forced : Нет

Текст #1
Идентификатор : 8
Формат : UTF-8
Идентификатор кодека : S_TEXT/UTF8
Идентификатор кодека/Информация : UTF-8 Plain Text
Заголовок : Русские
Язык : Russian
Default : Нет
Forced : Нет

Текст #2
Идентификатор : 9
Формат : UTF-8
Идентификатор кодека : S_TEXT/UTF8
Идентификатор кодека/Информация : UTF-8 Plain Text
Заголовок : Английские
Язык : English
Default : Нет
Forced : Нет

Текст #3
Идентификатор : 10
Формат : UTF-8
Идентификатор кодека : S_TEXT/UTF8
Идентификатор кодека/Информация : UTF-8 Plain Text
Заголовок : Английские
Язык : English
Default : Нет
Forced : Нет

Меню
00:00:00.000 : :Chapter 01
00:04:48.705 : :Chapter 02
00:11:06.123 : :Chapter 03
00:15:12.036 : :Chapter 04
00:19:51.815 : :Chapter 05
00:21:52.644 : :Chapter 06
00:30:55.812 : :Chapter 07
00:35:03.434 : :Chapter 08
00:39:53.099 : :Chapter 09
00:48:01.295 : :Chapter 10
00:52:12.629 : :Chapter 11
00:59:25.103 : :Chapter 12
01:05:07.069 : :Chapter 13
01:09:29.290 : :Chapter 14
01:15:18.222 : :Chapter 15
01:22:02.292 : :Chapter 16
01:26:38.276 : :Chapter 17
01:32:29.502 : :Chapter 18
01:36:49.970 : :Chapter 19



_________________
Проголосуй за трекер Открытый торрент трекер - RUS-MEDIA.ORG

Проголосуй Открытый торрент трекер - RUS-MEDIA.ORG


Вернуться к началу
 Профиль Отправить личное сообщение  
 
   Похожие торренты   Автор   Торрент   Размер 
В этой теме нет новых непрочитанных сообщений. Страх в ночи / Fear in the Night [ужасы, триллер, 1972] BDRemux 1080p, Avo

salma3

0 | 0

21.61 ГБ

В этой теме нет новых непрочитанных сообщений. Страх / Fear [триллер, драма, 1996] BDRip 720p, Dub

salma3

3 | 7

8.17 ГБ

В этой теме нет новых непрочитанных сообщений. Корпорация «Страх» / Fear, Inc. [ужасы, триллер, комедия, 2016] BDRip 1080p, Avo

salma3

315 | 141

6.95 ГБ

В этой теме нет новых непрочитанных сообщений. Обнаженный страх / Naked Fear [ужасы, триллер, 2007] BDRip 1080p, Mvo

salma3

47 | 9

8.22 ГБ

В этой теме нет новых непрочитанных сообщений. Корпорация «Страх» / Fear, Inc. [ужасы, триллер, комедия, 2016] WEB-DLRip, Avo

salma3

438 | 120

1.27 ГБ

В этой теме нет новых непрочитанных сообщений. Страх темноты / The Fear of Darkness [ужасы, триллер, 2015] HDRip, Dub [iTunes]

salma3

4244 | 669

1.45 ГБ

В этой теме нет новых непрочитанных сообщений. Страх темноты / The Fear of Darkness [триллер, 2015] BDRip 1080p, Dub [iTunes]

salma3

361 | 127

6.78 ГБ


Начать новую тему Ответить на тему  [ 1 сообщение ] 




Для Мосгорсуда, Роскомнадзора и рекламодателей:: mosgorsud-torrent[собачка]yandex.ru
cron