Торрент файл
скачать торрент магнет ссылка Добавлен: 26 сен 2017, 20:35
Размер: 1.45 ГБ
Сидеров: 13
Личеров: 12
Статус: (salma3)
Автор

СообщениеДобавлено: 26 сен 2017, 20:35 

Не в сети
Супермодератор
Аватара пользователя
Дата регистрации:
15 фев 2012, 16:44
Возраст: 28
Спасибо: 7290 / 2147
Сообщения: 70662
Год выхода: 2008
Жанр: фэнтези, боевик, триллер
Режиссер: Роб Коэн / Rob Cohen

В ролях: Брендан Фрейзер, Джет Ли, Мария Белло, Джон Ханна, Мишель Йео, Люк Форд, Изабелла Люн, Энтони Вонг Чау Санг, Расселл Вонг, Лиам Каннингэм

О фильме:
Заколдованный волшебницей, безжалостный китайский император-дракон должен провести вечность в забвении. Его 10 000 воинов превратились в терракотовых воинов. Однако когда искатель приключений Алекс О`Коннелл случайно пробуждает властителя от вечной спячки, он вынужден искать помощи у единственных людей, которые знают, как справиться с воскресшими мертвецами: у своих родителей. Монарх возвращается к жизни, и наши герои понимают, что его сила за эту тысячу лет только увеличилась. Мумия готова поднять всю Азию в борьбе за мировое господство… если О`Коннеллы ее не остановят.



Страна: США, Германия
Продолжительность: 01:51:35
Перевод: Профессиональный (полное дублирование)

Файл
Формат: AVI
Качество: HDTVRip
Видео: 720x400 (1.80:1), 23.976 fps, XviD build 67 ~1405 kbps avg, 0.20 bit/pixel
Звук: Russian: 48 kHz, AC3 Dolby Digital, 3/2 (L,C,R,l,r) + LFE ch, ~448.00 kbps avg
Субтитры: русские (вшитые на китайскую речь)

General
Complete name : D:FilmsThe.Mummy.Tomb.of.the.Dragon.Emperor.2008.HDTVRip.Open.Matte.Dub.avi
Format : AVI
Format/Info : Audio Video Interleave
File size : 1.45 GiB
Duration : 1h 51mn
Overall bit rate : 1 863 Kbps
Movie name : The Mummy: Tomb of the Dragon Emperor (2008) Open Matte
Writing application : VirtualDubMod 1.5.10.2 (build 2542/release)
Copyright : Vouka

Video
ID : 0
Format : MPEG-4 Visual
Format profile : AdvancedSimple@L5
Format settings, BVOP : Yes
Format settings, QPel : No
Format settings, GMC : No warppoints
Format settings, Matrix : Custom
Codec ID : XVID
Codec ID/Hint : XviD
Duration : 1h 51mn
Bit rate : 1 405 Kbps
Width : 720 pixels
Height : 400 pixels
Display aspect ratio : 16:9
Frame rate : 23.976 fps
Resolution : 24 bits
Colorimetry : 4:2:0
Scan type : Progressive
Bits/(Pixel*Frame) : 0.204
Stream size : 1.10 GiB (75%)
Writing library : XviD 67

Audio
ID : 1
Format : AC-3
Format/Info : Audio Coding 3
Codec ID : 2000
Duration : 1h 51mn
Bit rate mode : Constant
Bit rate : 448 Kbps
Channel(s) : 6 channels
Channel positions : Front: L C R, Surround: L R, LFE
Sampling rate : 48.0 KHz
Stream size : 358 MiB (24%)
Alignment : Split accross interleaves
Interleave, duration : 42 ms (1.00 video frame)
Interleave, preload duration : 500 ms


_________________
Проголосуй за трекер Открытый торрент трекер - RUS-MEDIA.ORG

Проголосуй Открытый торрент трекер - RUS-MEDIA.ORG


Вернуться к началу
 Профиль Отправить личное сообщение  
 
   Похожие торренты   Автор   Торрент   Размер 
В этой теме нет новых непрочитанных сообщений. Мумия: Гробница Императора Драконов / The Mummy: Tomb of the Dragon Emperor [фэнтези, боевик, приключения, 2008] WEB-DLRip-AVC, Dub [Open Matte]

salma3

52 | 10

2.14 ГБ

В этой теме нет новых непрочитанных сообщений. Мумия: Гробница Императора Драконов / Мумия - 3 / The Mummy: Tomb of the Dragon Emperor [ужасы, фэнтези, боевик, 2008] HDRip, Dub+Sub

salma3

284 | 46

1.45 ГБ

В этой теме нет новых непрочитанных сообщений. Мумия: Гробница Императора Драконов / The Mummy: Tomb of the Dragon Emperor [Фэнтези, боевик, триллер, 2008] BDRemux 2160p, Dub [4K]

salma3

0 | 0

55.83 ГБ

В этой теме нет новых непрочитанных сообщений. Мумия: Гробница Императора Драконов / The Mummy: Tomb of the Dragon Emperor [фэнтези, боевик, триллер, 2008] BDRip-HEVC 1080p, Dub [Лицензия]

salma3

17 | 6

5.41 ГБ

В этой теме нет новых непрочитанных сообщений. Гробница мумии / The Mummy's Tomb [Ужасы, боевик, триллер, 1942] BDRip 1080p, Avo

salma3

0 | 0

4.45 ГБ

В этой теме нет новых непрочитанных сообщений. Мумия / The Mummy [Фэнтези, боевик, триллер, 2017] BDRip-AVC, Dub [Лицензия]

salma3

68 | 6

2.59 ГБ

В этой теме нет новых непрочитанных сообщений. Мумия / The Mummy [фэнтези, боевик, триллер, 2017] DVD9, Dub [Лицензия]

salma3

68 | 28

7.48 ГБ


Начать новую тему Ответить на тему  [ 1 сообщение ] 




Для Мосгорсуда, Роскомнадзора и рекламодателей:: mosgorsud-torrent[собачка]yandex.ru
cron