Торрент файл
скачать торрент магнет ссылка Добавлен: 26 сен 2017, 12:19
Размер: 18.13 ГБ
Сидеров: 13
Личеров: 18
Статус: (salma3)
Автор

СообщениеДобавлено: 26 сен 2017, 12:19 

Не в сети
Супермодератор
Аватара пользователя
Дата регистрации:
15 фев 2012, 16:44
Возраст: 29
Спасибо: 7372 / 2147
Сообщения: 75718
Год выхода: 2010
Жанр: Боевик, триллер
Режиссер: Филлип Нойс

В ролях: Лив Шрайбер, Анджелина Джоли, Чиветел Эджиофор, Яра Шахиди, Гай Чарльз, Зои Листер Джонс, Виктор Слезак, Даниэль Ольбрыхский, Кэссиди Хинкль, Джеймс Шрэм

О фильме:
Эвелин Солт — сотрудница ЦРУ. Ей чудом удаётся избежать тюрьмы: собственное агентство выдвигает против неё необоснованные обвинения в том, что она работает на русскую разведку. Теперь Солт необходимо восстановить своё доброе имя.



Страна: США
Продолжительность: 01:39:59
Перевод: Дублированный, авторский

Файл
Кодек: MPEG-4 AVC
Качество: BDRemux 1080p
Видео: 20704 Кбит/с, 1920x1080, 23.976 кадр/с
Аудио 1: Русский Dolby Digital / 5.1 / 384 kbps / 48khz / - Дубляж
Аудио 2: Английский DTS-HD Master / 5.1 / 2976 kbps / 48 kHz / 24-bit (DTS Core: 5.1 / 48 kHz / 1509 kbps / 24-bit) - Оригинал
Аудио 3: Ukrainian: 48 kHz, AC3, 3/2 (L,C,R,l,r) + LFE ch, ~384.00 kbps avg - Дубляж (R5)
Аудио 4: Russian: 48 kHz, DTS, 3/2 (L,C,R,l,r) + LFE ch, ~1536.00 kbps avg - Авторский (А.Гаврилов)
Субтитры: Русские

Оскар, 2011 год
Номинации (1):
Лучший звук

Жорж, 2011 год
Номинации (1):
Говно года

Сатурн, 2011 год
Победитель (1):
Лучший приключенческий фильм или боевик
Номинации (1):
Лучшая актриса (Анджелина Джоли)
* Предполагалось, что в фильме сыграет Том Круз, однако его заменили на Джоли. После этого сценарий картины был переписан.
* На экране, во время рассказа о детстве Эвелин Солт и её воспитании в спецшколе на территории старого монастыря, показывают Желтоводский Макариев монастырь, расположенный на берегу Волги в Нижегородской области.

Общее
Уникальный идентификатор : 185024549788259147273030051830233601901 (0x8B326E9D58605E50BC6924EE9470976D)
Полное имя : D:\РЕМУКС. НР\Солт.BDRemux.mkv
Формат : Matroska
Версия формата : Version 2
Размер файла : 18,1 Гбайт
Продолжительность : 1 ч. 40 м.
Режим общего битрейта : Переменный
Общий поток : 26,0 Мбит/сек
Название фильма : Salt.2010.Theatrical.Cut.Blu-ray.1080p.AVC
Дата кодирования : UTC 2015-01-31 05:42:03
Программа кодирования : mkvmerge v5.0.1 ('Es ist Sommer') built on Oct 9 2011 11:55:43
Библиотека кодирования : libebml v1.2.2 + libmatroska v1.3.0

Видео
Идентификатор : 1
Формат : AVC
Формат/Информация : Advanced Video Codec
Профиль формата : High@L4.1
Параметр CABAC формата : Да
Параметр ReFrames формата : 2 кадра
Режим смешивания : Container profile=Unknown@0.0
Идентификатор кодека : V_MPEG4/ISO/AVC
Продолжительность : 1 ч. 40 м.
Вид битрейта : Переменный
Ширина : 1920 пикселей
Высота : 1080 пикселей
Соотношение сторон : 16:9
Режим частоты кадров : Постоянный
Частота кадров : 23,976 кадра/сек
Цветовое пространство : YUV
Субдискретизация насыщенности : 4:2:0
Битовая глубина : 8 бит
Тип развёртки : Прогрессивная
Заголовок : 20704 kbps
Язык : English
Default : Нет
Forced : Нет

Аудио #1
Идентификатор : 2
Формат : AC-3
Формат/Информация : Audio Coding 3
Расширение режима : CM (complete main)
Параметр Endianness формата : Big
Идентификатор кодека : A_AC3
Продолжительность : 1 ч. 40 м.
Вид битрейта : Постоянный
Битрейт : 384 Кбит/сек
Каналы : 6 каналов
Расположение каналов : Front: L C R, Side: L R, LFE
Частота : 48,0 КГц
Битовая глубина : 16 бит
Метод сжатия : С потерями
Размер потока : 275 Мбайт (1%)
Заголовок : Dub АСЗ 384
Язык : Russian
Default : Да
Forced : Нет

Аудио #2
Идентификатор : 3
Формат : DTS
Формат/Информация : Digital Theater Systems
Профиль формата : MA / Core
Режим : 16
Параметр Endianness формата : Big
Идентификатор кодека : A_DTS
Продолжительность : 1 ч. 40 м.
Вид битрейта : Переменный
Битрейт : Неизвестно / 1509 Кбит/сек
Каналы : 6 каналов
Расположение каналов : Front: L C R, Side: L R, LFE
Частота : 48,0 КГц
Битовая глубина : 24 бит
Метод сжатия : Без потерь / Lossy
Заголовок : оригинал DTS-HD MA 5.1 @ 2976 kbps
Язык : English
Default : Нет
Forced : Нет

Аудио #3
Идентификатор : 6
Формат : AC-3
Формат/Информация : Audio Coding 3
Расширение режима : CM (complete main)
Параметр Endianness формата : Big
Идентификатор кодека : A_AC3
Продолжительность : 1 ч. 40 м.
Вид битрейта : Постоянный
Битрейт : 384 Кбит/сек
Каналы : 6 каналов
Расположение каналов : Front: L C R, Side: L R, LFE
Частота : 48,0 КГц
Битовая глубина : 16 бит
Метод сжатия : С потерями
Размер потока : 275 Мбайт (1%)
Заголовок : AC3 5.1 @ 384 kbps - Дублированный
Язык : Ukrainian
Default : Нет
Forced : Нет

Аудио #4
Идентификатор : 7
Формат : DTS
Формат/Информация : Digital Theater Systems
Режим : 16
Параметр Endianness формата : Big
Идентификатор кодека : A_DTS
Продолжительность : 1 ч. 40 м.
Вид битрейта : Постоянный
Битрейт : 1509 Кбит/сек
Каналы : 6 каналов
Расположение каналов : Front: L C R, Side: L R, LFE
Частота : 48,0 КГц
Битовая глубина : 24 бит
Метод сжатия : С потерями
Размер потока : 1,05 Гбайт (6%)
Заголовок : DTS 5.1 @ 1536 kbps - Одноголосый закадровый, А.Гаврилов
Язык : Russian
Default : Нет
Forced : Нет

Текст #1
Идентификатор : 4
Формат : UTF-8
Идентификатор кодека : S_TEXT/UTF8
Идентификатор кодека/Информация : UTF-8 Plain Text
Заголовок : Forced
Язык : Russian
Default : Да
Forced : Нет

Текст #2
Идентификатор : 5
Формат : UTF-8
Идентификатор кодека : S_TEXT/UTF8
Идентификатор кодека/Информация : UTF-8 Plain Text
Заголовок : Full
Язык : Russian
Default : Нет
Forced : Нет

Меню
00:00:00.000 : en:00:00:00.000
00:07:07.344 : en:00:07:07.344
00:10:04.896 : en:00:10:04.896
00:16:43.544 : en:00:16:43.544
00:24:37.726 : en:00:24:37.726
00:30:45.302 : en:00:30:45.302
00:37:44.053 : en:00:37:44.053
00:42:38.306 : en:00:42:38.306
00:48:35.871 : en:00:48:35.871
00:54:57.294 : en:00:54:57.294
01:01:07.330 : en:01:01:07.330
01:05:55.576 : en:01:05:55.576
01:12:07.782 : en:01:12:07.782
01:19:27.012 : en:01:19:27.012
01:26:07.996 : en:01:26:07.996
01:32:03.810 : en:01:32:03.810



_________________
Проголосуй за трекер Открытый торрент трекер - RUS-MEDIA.ORG

Проголосуй Открытый торрент трекер - RUS-MEDIA.ORG


Вернуться к началу
 Профиль Отправить личное сообщение  
 
   Похожие торренты   Автор   Торрент   Размер 
В этой теме нет новых непрочитанных сообщений. Солт / Salt [Боевик, триллер, 2010] UHD BDRemux 2160p, Dub [4K] [Лицензия] [Театральная версия]

salma3

25 | 11

44.65 ГБ

В этой теме нет новых непрочитанных сообщений. Начало / Inception [Фантастика, боевик, триллер, 2010] BDRemux 1080p, Dub

salma3

16 | 57

49.28 ГБ

В этой теме нет новых непрочитанных сообщений. Легион / Legion [Ужасы, боевик, триллер, 2010] BDRemux 1080p, Dub

salma3

22 | 19

25.04 ГБ

В этой теме нет новых непрочитанных сообщений. Хищники / Predators [фантастика, боевик, триллер, 2010] BDRemux 1080p, Dub+Sub

salma3

69 | 43

27.43 ГБ

В этой теме нет новых непрочитанных сообщений. Турист / The Tourist [Боевик, триллер, драма, ремейк, 2010] BDRemux 1080p, Dub

salma3

0 | 0

29.18 ГБ

В этой теме нет новых непрочитанных сообщений. Око за око / An Eye for an Eye [Боевик, триллер, криминал, 1981] BDRemux 1080p, Mvo

salma3

22 | 22

21.82 ГБ

В этой теме нет новых непрочитанных сообщений. Стрелок / Shooter [боевик, триллер, 2007] BDRemux 1080p, Dub

salma3

0 | 0

28.95 ГБ


Начать новую тему Ответить на тему  [ 1 сообщение ] 




Для Мосгорсуда, Роскомнадзора и рекламодателей:: mosgorsud-torrent[собачка]yandex.ru
cron