Торрент файл
скачать торрент магнет ссылка Добавлен: 25 сен 2017, 10:40
Размер: 21.62 ГБ
Сидеров: 10
Личеров: 2
Статус: (salma3)
Автор

СообщениеДобавлено: 25 сен 2017, 10:40 

В сети
Супермодератор
Аватара пользователя
Дата регистрации:
15 фев 2012, 16:44
Возраст: 28
Спасибо: 7224 / 2147
Сообщения: 68128
Год выхода: 2005
Жанр: Ужасы, триллер, приключения
Режиссер: Нил Маршалл

В ролях: Шона Макдональд, Натали Джексон Мендоза, Алекс Рейд, Саския Малдер, Мианна Баринг, Нора-Джейн Нун, Оливер Милберн, Молли Кайл, Крэйг Конуэй, Лесли Симпсон

О фильме:
Компания смелых очаровательных девушек привыкла проводить свой отпуск в экстремальных путешествиях. На этот раз принято решение исследовать отдаленные горные хребты. Все идет неплохо до тех пор, пока они не находят загадочный грот. Какие тайны он хранит? Женское любопытство одерживает верх над осторожностью, и вот подруги уже глубоко под землёй. Внезапный камнепад замуровывает выход наверх, и герои вынуждены отправиться вглубь бесконечных тёмных катакомб в поисках спасения. Вскоре они выясняют, что мрак, холод, голод, отчаянье и страх — не единственные их попутчики в этом подземном путешествии. Грот оказывается населённым неизвестными кошмарными созданиями, которые не прочь познакомиться поближе… Долгожданный отпуск оборачивается леденящим душу ужасом, а загадочная пещера — склепом. Темнота и тишина…только слышно, как быстро бьётся твоё собственное сердце, охваченное первобытным страхом…



Страна: Великобритания
Продолжительность: 01:43:20
Перевод: Дублированный, профессиональный многоголосый, авторский

Файл
Кодек: MPEG-4 AVC
Качество: BDRemux 1080p
Видео: 25923 Кбит/с, 1920x1080, 24.000 кадр/с
Аудио 1: Русский: Dolby Digital Audio 5.1 / 48 kHz / 384 kbps - Дубляж
Аудио 2: Русский: Dolby Digital Audio 5.1 / 48 kHz / 448 kbps - Профессиональный многоголосый (Супербит)
Аудио 3: Русский: Dolby Digital Audio 2.0 / 48 kHz / 192 kbps - Профессиональный многоголосый
Аудио 4: Русский: 48 kHz, DTS, 3/2 (L,C,R,l,r) + LFE ch, ~1509 kbps avg - Авторский (Д. Есарев)
Аудио 5: Английский: DTS-HD Master Audio 2300 kbps 5.1 / 48 kHz / 16- bit (DTS Core: 5.1 / 48 kHz / 1509 kbps / 16-bit) - Оригинал
Аудио 6: Английский: Dolby Digital Audio 2.0 / 48 kHz / 192 kbps - Комментарии режиссера
Аудио 7: Английский: Dolby Digital Audio 2.0 / 48 kHz / 192 kbps - Комментарии актрис
Субтитры: Русские, английские
Главы: есть

Несмотря на то, что действие фильма происходит в Северной Америке, съёмки от начала и до конца прошли в Великобритании с 6 декабря 2004 года по 5 февраля 2005. Сцены на открытом воздухе были сняты в Шотландии, а сама пещера была сконструирована на съёмочной площадке в павильонах студии Pinewood Studios неподалёку от Лондона. Создатели фильма посчитали, что проводить съёмки в естественной пещере значит подвергать актеров излишней опасности и займёт намного больше времени.
Всё актёры прошли специальную подготовку в альпинистском центре в Дербишире, Англия.
При съёмках сцены в госпитале было задействовано 30 дополнительно приглашённых статистов.
Сатурн, 2007 год
Победитель (1):
- Лучший фильм ужасов

Номинации (2):
- Лучшая актриса (Шона МакДональд)
- Лучший грим

Общее
Уникальный идентификатор : 217012694359456256251996434251062522752 (0xA3431FE84505FFF3BDBCE27167A93380)
Полное имя : D:\РЕМУКС с\Спуск.BDRemux..mkv
Формат : Matroska
Версия формата : Version 4 / Version 2
Размер файла : 21,6 Гбайт
Продолжительность : 1 ч. 43 м.
Режим общего битрейта : Переменный
Общий поток : 30,0 Мбит/сек
Название фильма : The Descent 2005 [rutracker.org]
Дата кодирования : UTC 2015-08-30 08:05:06
Программа кодирования : mkvmerge v6.1.0 ('Old Devil') built on Mar 4 2013 09:10:42
Библиотека кодирования : libebml v1.3.0 + libmatroska v1.4.0

Видео
Идентификатор : 1
Формат : AVC
Формат/Информация : Advanced Video Codec
Профиль формата : High@L4.1
Параметр CABAC формата : Да
Параметр ReFrames формата : 4 кадра
Идентификатор кодека : V_MPEG4/ISO/AVC
Продолжительность : 1 ч. 43 м.
Вид битрейта : Переменный
Максимальный битрейт : 35,0 Мбит/сек
Ширина : 1920 пикселей
Высота : 1080 пикселей
Соотношение сторон : 16:9
Режим частоты кадров : Постоянный
Частота кадров : 24,000 кадра/сек
Стандарт вещания : NTSC
Цветовое пространство : YUV
Субдискретизация насыщенности : 4:2:0
Битовая глубина : 8 бит
Тип развёртки : Прогрессивная
Язык : English
Default : Да
Forced : Нет
Основные цвета : BT.709
Характеристики трансфера : BT.709
Коэффициенты матрицы : BT.709

Аудио #1
Идентификатор : 2
Формат : AC-3
Формат/Информация : Audio Coding 3
Расширение режима : CM (complete main)
Параметр Endianness формата : Big
Идентификатор кодека : A_AC3
Продолжительность : 1 ч. 43 м.
Вид битрейта : Постоянный
Битрейт : 384 Кбит/сек
Каналы : 6 каналов
Расположение каналов : Front: L C R, Side: L R, LFE
Частота : 48,0 КГц
Битовая глубина : 16 бит
Метод сжатия : С потерями
Размер потока : 284 Мбайт (1%)
Заголовок : Dub
Язык : Russian
Default : Да
Forced : Нет

Аудио #2
Идентификатор : 3
Формат : AC-3
Формат/Информация : Audio Coding 3
Расширение режима : CM (complete main)
Параметр Endianness формата : Big
Идентификатор кодека : A_AC3
Продолжительность : 1 ч. 43 м.
Вид битрейта : Постоянный
Битрейт : 448 Кбит/сек
Каналы : 6 каналов
Расположение каналов : Front: L C R, Side: L R, LFE
Частота : 48,0 КГц
Битовая глубина : 16 бит
Метод сжатия : С потерями
Размер потока : 331 Мбайт (1%)
Заголовок : MVO (Супербит)
Язык : Russian
Default : Нет
Forced : Нет

Аудио #3
Идентификатор : 4
Формат : AC-3
Формат/Информация : Audio Coding 3
Расширение режима : CM (complete main)
Параметр Endianness формата : Big
Идентификатор кодека : A_AC3
Продолжительность : 1 ч. 43 м.
Вид битрейта : Постоянный
Битрейт : 192 Кбит/сек
Каналы : 2 канала
Расположение каналов : Front: L R
Частота : 48,0 КГц
Битовая глубина : 16 бит
Метод сжатия : С потерями
Размер потока : 142 Мбайт (1%)
Заголовок : MVO 2
Язык : Russian
Default : Нет
Forced : Нет

Аудио #4
Идентификатор : 5
Формат : DTS
Формат/Информация : Digital Theater Systems
Режим : 16
Параметр Endianness формата : Big
Идентификатор кодека : A_DTS
Продолжительность : 1 ч. 43 м.
Вид битрейта : Постоянный
Битрейт : 1509 Кбит/сек
Каналы : 6 каналов
Расположение каналов : Front: L C R, Side: L R, LFE
Частота : 48,0 КГц
Битовая глубина : 16 бит
Метод сжатия : С потерями
Размер потока : 1,09 Гбайт (5%)
Заголовок : Russian: DTS ~1509 kbps avg |Одноголосый закадровый, Д. Есарев|
Язык : Russian
Default : Нет
Forced : Нет

Аудио #5
Идентификатор : 6
Формат : DTS
Формат/Информация : Digital Theater Systems
Профиль формата : MA / Core
Режим : 16
Параметр Endianness формата : Big
Идентификатор кодека : A_DTS
Продолжительность : 1 ч. 43 м.
Вид битрейта : Переменный
Битрейт : Неизвестно / 1509 Кбит/сек
Каналы : 6 каналов
Расположение каналов : Front: L C R, Side: L R, LFE
Частота : 48,0 КГц
Битовая глубина : 16 бит
Метод сжатия : Без потерь / Lossy
Язык : English
Default : Нет
Forced : Нет

Аудио #6
Идентификатор : 7
Формат : AC-3
Формат/Информация : Audio Coding 3
Расширение режима : CM (complete main)
Параметр Endianness формата : Big
Идентификатор кодека : A_AC3
Продолжительность : 1 ч. 43 м.
Вид битрейта : Постоянный
Битрейт : 192 Кбит/сек
Каналы : 2 канала
Расположение каналов : Front: L R
Частота : 48,0 КГц
Битовая глубина : 16 бит
Метод сжатия : С потерями
Размер потока : 142 Мбайт (1%)
Заголовок : Комментарии режиссера
Язык : English
Default : Нет
Forced : Нет

Аудио #7
Идентификатор : 8
Формат : AC-3
Формат/Информация : Audio Coding 3
Расширение режима : CM (complete main)
Параметр Endianness формата : Big
Идентификатор кодека : A_AC3
Продолжительность : 1 ч. 43 м.
Вид битрейта : Постоянный
Битрейт : 192 Кбит/сек
Каналы : 2 канала
Расположение каналов : Front: L R
Частота : 48,0 КГц
Битовая глубина : 16 бит
Метод сжатия : С потерями
Размер потока : 142 Мбайт (1%)
Заголовок : Комментарии актрис
Язык : English
Default : Нет
Forced : Нет

Текст #1
Идентификатор : 9
Формат : UTF-8
Идентификатор кодека : S_TEXT/UTF8
Идентификатор кодека/Информация : UTF-8 Plain Text
Язык : Russian
Default : Нет
Forced : Нет

Текст #2
Идентификатор : 10
Формат : UTF-8
Идентификатор кодека : S_TEXT/UTF8
Идентификатор кодека/Информация : UTF-8 Plain Text
Язык : English
Default : Нет
Forced : Нет

Меню
00:00:00.000 : en:00:00:00.000
00:06:01.833 : en:00:06:01.833
00:13:59.750 : en:00:13:59.750
00:21:13.166 : en:00:21:13.166
00:28:18.125 : en:00:28:18.125
00:34:45.250 : en:00:34:45.250
00:44:59.458 : en:00:44:59.458
00:54:41.583 : en:00:54:41.583
01:02:27.458 : en:01:02:27.458
01:13:24.791 : en:01:13:24.791
01:18:38.250 : en:01:18:38.250
01:24:35.041 : en:01:24:35.041
01:30:35.041 : en:01:30:35.041
01:35:07.708 : en:01:35:07.708



_________________
Проголосуй за трекер Открытый торрент трекер - RUS-MEDIA.ORG

Проголосуй Открытый торрент трекер - RUS-MEDIA.ORG


Вернуться к началу
 Профиль Отправить личное сообщение  
 
   Похожие торренты   Автор   Торрент   Размер 
В этой теме нет новых непрочитанных сообщений. Спуск 2 / The Descent: Part 2 [Ужасы, триллер, приключения, 2009] BDRemux 1080p, Dub

salma3

7 | 8

20.57 ГБ

В этой теме нет новых непрочитанных сообщений. Спуск / The Descent [ужасы, приключения, 2005] BDRip 1080p, Dub+Mvo+Avo+Sub

salma3

67 | 9

10.54 ГБ

В этой теме нет новых непрочитанных сообщений. Спуск / The Descent [ужасы, драма, 2005] BDRip 1080p, Dub+Sub

salma3

58 | 51

4.37 ГБ

В этой теме нет новых непрочитанных сообщений. Спуск / The Descent [ужасы, триллер, 2005] HDRip-AVC, Dub+Dvo+Sub

salma3

100 | 24

1.45 ГБ

В этой теме нет новых непрочитанных сообщений. Спуск / The Descent [ужасы, триллер, 2005] BDRip 720p, Dub+Mvo+Avo+Sub

salma3

70 | 13

4.21 ГБ

В этой теме нет новых непрочитанных сообщений. Спуск 2 / The Descent: Part 2 [Приключения, Триллер, Ужасы, 2009] BDRip 720p, Dub [iPad] [Лицензия]

salma3

19 | 7

2.1 ГБ

В этой теме нет новых непрочитанных сообщений. Последний спуск / The Last Descent [драма, 2016] DVDRip, Mvo

salma3

30 | 2

1.37 ГБ


Начать новую тему Ответить на тему  [ 1 сообщение ] 




Для Мосгорсуда, Роскомнадзора и рекламодателей:: mosgorsud-torrent[собачка]yandex.ru
cron