Торрент файл
скачать торрент магнет ссылка Добавлен: 24 сен 2017, 13:59
Размер: 3.28 ГБ
Сидеров: 29
Личеров: 5
Статус: (salma3)
Автор

СообщениеДобавлено: 24 сен 2017, 13:59 

Не в сети
Супермодератор
Аватара пользователя
Дата регистрации:
15 фев 2012, 16:44
Возраст: 29
Спасибо: 7377 / 2147
Сообщения: 75902
Год выхода: 2009
Жанр: комедия, семейный
Режиссер: Р. Майкл Гивенс

В ролях: Билли Ангер, Ариэль Уинтер, Поли Шор, Коллин Крэбтри, Дилан Кэш, Дик Ван Паттен, Рене Тейлор, Френч Стюарт, Кристен Комбс, Рико Родригес

О фильме:
Фильм "День наоборот" это веселая комедия о том, как взрослые стали детьми, а дети стали наоборот взрослыми... Девятилетний Сэмми и его восьмилетняя сестра Карла отправляются в отпуск вместе с бабушкой и дедушкой, поскольку их родители очень перегружены работой. По возвращению в город, Сэмми участвует в эксперименте отца своего друга Чака, чтобы помочь расшифровать язык младенцев. Но, вдруг, что-то пошло не так. Во время использования специальной установки, она взрываются и толчок энергии, выпущенный на свободу меняет детей и взрослых местами.



Производство: США / Crystal Sky Pictures
Продолжительность: 01:21:03
Перевод: профессиональный (двухголосый закадровый)

Качество: WEB-DL 1080p
Видео: MPEG-4 AVC, 1920x1080 (16:9), 23.976 fps, 5097 kbps, 0.103 bit/pixel
Аудио #1: русский, AC3 2.0, 48 kHz, 192 kbps
Аудио #2: английский, AC3 5.1, 48 kHz, 384 kbps
Субтитры: английские вшитые отключаемые



Формат : Matroska
Версия формата : Version 4 / Version 2
Размер файла : 3,28 Гбайт
Продолжительность : 1 ч. 21 м.
Общий поток : 5788 Кбит/сек
Дата кодирования : UTC 2015-08-27 09:27:27
Программа кодирования : mkvmerge v6.1.0 ('Old Devil') built on Mar 2 2013 14:32:37
Библиотека кодирования : libebml v1.3.0 + libmatroska v1.4.0

Видео
Идентификатор : 1
Формат : AVC
Формат/Информация : Advanced Video Codec
Профиль формата : High@L4
Параметр CABAC формата : Да
Параметр ReFrames формата : 4 кадра
Идентификатор кодека : V_MPEG4/ISO/AVC
Продолжительность : 1 ч. 21 м.
Битрейт : 5097 Кбит/сек
Ширина : 1920 пикселей
Высота : 1080 пикселей
Соотношение сторон : 16:9
Режим частоты кадров : Постоянный
Частота кадров : 23,976 кадра/сек
Цветовое пространство : YUV
Субдискретизация насыщенности : 4:2:0
Битовая глубина : 8 бит
Тип развёртки : Прогрессивная
Бит/(Пиксели*Кадры) : 0.103
Размер потока : 2,89 Гбайт (88%)
Язык : English
Default : Да
Forced : Нет
Цветовой диапазон : Limited
Основные цвета : BT.709
Характеристики трансфера : BT.709
Коэффициенты матрицы : BT.709

Аудио #1
Идентификатор : 2
Формат : AC-3
Формат/Информация : Audio Coding 3
Расширение режима : CM (complete main)
Параметр Endianness формата : Big
Идентификатор кодека : A_AC3
Продолжительность : 1 ч. 21 м.
Вид битрейта : Постоянный
Битрейт : 192 Кбит/сек
Каналы : 2 канала
Расположение каналов : Front: L R
Частота : 48,0 КГц
Метод сжатия : С потерями
Размер потока : 111 Мбайт (3%)
Язык : Russian
Default : Да
Forced : Нет

Аудио #2
Идентификатор : 3
Формат : AC-3
Формат/Информация : Audio Coding 3
Расширение режима : CM (complete main)
Параметр Endianness формата : Big
Идентификатор кодека : A_AC3
Продолжительность : 1 ч. 21 м.
Вид битрейта : Постоянный
Битрейт : 384 Кбит/сек
Каналы : 6 каналов
Расположение каналов : Front: L C R, Side: L R, LFE
Частота : 48,0 КГц
Метод сжатия : С потерями
Размер потока : 223 Мбайт (7%)
Язык : English
Default : Нет
Forced : Нет

Текст
Идентификатор : 4
Формат : UTF-8
Идентификатор кодека : S_TEXT/UTF8
Идентификатор кодека/Информация : UTF-8 Plain Text
Язык : English
Default : Нет
Forced : Нет

Меню
00:00:00.000 : en:Introduction
00:04:00.000 : en:Playground
00:06:49.000 : en:Vacation
00:10:27.000 : en:Dumb Work
00:12:05.000 : en:Presentation
00:16:07.000 : en:The Wish
00:21:14.000 : en:Opposite Day
00:30:31.000 : en:Police Station
00:35:03.000 : en:Meet the Parents
00:40:29.000 : en:Good Morning
00:45:17.000 : en:A Day at Work
00:53:31.000 : en:Evil Plan
01:00:42.000 : en:Traitor
01:04:43.000 : en:Mystification
01:10:38.000 : en:Conclusion
01:17:47.000 : en:End Credits


_________________
Проголосуй за трекер Открытый торрент трекер - RUS-MEDIA.ORG

Проголосуй Открытый торрент трекер - RUS-MEDIA.ORG


Вернуться к началу
 Профиль Отправить личное сообщение  
 
   Похожие торренты   Автор   Торрент   Размер 
В этой теме нет новых непрочитанных сообщений. Неслабый пол / The Opposite Sex [комедия, комедия, 2014] BDRip 1080p, Dub [iTunes]

marya111

61 | 18

6.82 ГБ

В этой теме нет новых непрочитанных сообщений. Неслабый пол / The Opposite Sex [Комедия, 2014] BDRip, dub [Лицензия]

salma3

0 | 0

745.33 МБ

В этой теме нет новых непрочитанных сообщений. Неслабый пол / The Opposite Sex [Комедия, 2014] BDRip, dub [Лицензия]

salma3

338 | 70

1.46 ГБ

В этой теме нет новых непрочитанных сообщений. Неслабый пол / The Opposite Sex (Комедия, 2014) HDRip, dub [iTunes]

marya111

23 | 4

745.33 МБ

В этой теме нет новых непрочитанных сообщений. Все наоборот / Vice Versa [фэнтези, комедия, 1988] HDRip, Mvo

salma3

8 | 2

1.45 ГБ

В этой теме нет новых непрочитанных сообщений. Мальчишник наоборот / Live Nude Girls [Комедия, 1995] BDRip 720p, Dvo

salma3

26 | 9

3.99 ГБ

В этой теме нет новых непрочитанных сообщений. Так себе каникулы / Old Dogs [Комедия, семейный, 2009] BDRip 1080p, Dub+Sub

salma3

94 | 82

8.27 ГБ


Начать новую тему Ответить на тему  [ 1 сообщение ] 




Для Мосгорсуда, Роскомнадзора и рекламодателей:: mosgorsud-torrent[собачка]yandex.ru
cron