Торрент файл
скачать торрент магнет ссылка Добавлен: 23 сен 2017, 11:54
Размер: 22.06 ГБ
Сидеров: 21
Личеров: 13
Статус: (salma3)
Автор

СообщениеДобавлено: 23 сен 2017, 11:54 

Не в сети
Супермодератор
Аватара пользователя
Дата регистрации:
15 фев 2012, 16:44
Возраст: 28
Спасибо: 6665 / 2146
Сообщения: 46082
Год выхода: 2005
Жанр: Драма, биография, спорт, реальные события
Режиссер: Рон Ховард

В ролях: Расселл Кроу, Рене Зеллвегер, Пол Джаматти, Крэйг Бирко, Пэдди Консидайн, Брюс МакГилл, Дэвид Хубанд, Коннор Прайс, Эриель Уоллер, Патрик Луис, Розмари ДеУитт, Линда Кэш, Николас Кэмпбелл, Джин Пирц, Чак Шамата, Рон Канада

О фильме:
Потерпев несколько поражений кряду, подававший надежды боксер-тяжеловес Джим Брэддок вынужден бросить спорт. Во времена Великой депрессии Брэддок берется за любую работу, чтобы прокормить свою жену Мэй и детей. При этом он все еще надеется вернуться на ринг. И однажды ему предоставляется такой шанс. В последнюю минуту он заменяет другого боксера и выходит на поединок с претендентом на титул чемпиона мира. Ко всеобщему изумлению, Брэддок побеждает уже в третьем раунде. Несмотря на то, что он весит меньше своих соперников и к тому же страдает от многочисленных травм, Джим продолжает драться и выигрывать. Апофеозом же его спортивной карьеры становится поединок с чемпионом мира Максом Баэром, убившим на ринге двух человек…



Страна: США
Продолжительность: 02:24:20
Перевод: Дублированный, профессиональный многоголосый, авторский

Файл
Кодек: MPEG-4 AVC
Качество: BDRip 1080
Видео: 14982 Кбит/с, 1920х816, 23.976 кадр/с
Аудио 1: Russian: 48 kHz, AC3, 3/2 (L,C,R,l,r) + LFE ch, 384 kbps avg - Дубляж
Аудио 2: Russian: 48 kHz, AC3, 3/2 (L,C,R,l,r) + LFE ch, 448 kbps avg - Профессиональный многоголосый (Tycoon)
Аудио 3: Russian: 48 kHz/16-bit, DTS, 3/2 (L,C,R,l,r) + LFE ch, 1509 kbps avg - Авторский (Немахов)
Аудио 4: Russian: 48 kHz/16-bit, DTS, 3/2 (L,C,R,l,r) + LFE ch, 1509 kbps avg - Авторский (Визгунов)
Аудио 5: Russian: 48 kHz, AC3, 3/2 (L,C,R,l,r) + LFE ch, 448 kbps avg - Авторский (Немахов)
Аудио 6: Russian: 48 kHz, AC3, 3/2 (L,C,R,l,r) + LFE ch, 448 kbps avg - Авторский (Визгунов)
Аудио 7: Ukrainian: 48 kHz, AC3, 3/2 (L,C,R,l,r) + LFE ch, 640 kbps avg - Профессиональный многоголосый (ICTV)
Аудио 8: English: 48 kHz/16-bit, DTS, 3/2 (L,C,R,l,r) + LFE ch, 1509 kbps avg - Оригинал
Субтитры: Русские, английские
Главы: Есть

Оскар, 2006 год
Номинации:
• Лучшая мужская роль второго плана (Пол Джаматти)
• Лучший монтаж
• Лучший грим

Золотой глобус, 2006 год
Номинации:
• Лучшая мужская роль (драма) (Рассел Кроу)
• Лучшая мужская роль второго плана (Пол Джаматти)

Британская академия, 2006 год
Номинации:
• Лучший оригинальный сценарий

Общее
Уникальный идентификатор : 240806905709036823170297822178122638028 (0xB529B919F00841A88747D9CEB603A2CC)
Полное имя : D:\РЕМУКС!!!!!\РАЗ\Нокдаун. BDRip 1080p.mkv
Формат : Matroska
Версия формата : Version 4 / Version 2
Размер файла : 22,1 Гбайт
Продолжительность : 2 ч. 24 м.
Общий поток : 21,9 Мбит/сек
Название фильма : Нокдаун. BDRip 1080p.thx:SPOMOPS.
Дата кодирования : UTC 2016-06-01 10:03:38
Программа кодирования : mkvmerge v6.1.0 ('Old Devil') built on Mar 4 2013 09:10:42
Библиотека кодирования : libebml v1.3.0 + libmatroska v1.4.0
Attachements : cover.jpg / xlog.txt

Видео
Идентификатор : 1
Формат : AVC
Формат/Информация : Advanced Video Codec
Профиль формата : High@L4.1
Параметр CABAC формата : Да
Параметр ReFrames формата : 5 кадров
Идентификатор кодека : V_MPEG4/ISO/AVC
Продолжительность : 2 ч. 24 м.
Битрейт : 14,5 Мбит/сек
Ширина : 1920 пикселей
Высота : 816 пикселей
Соотношение сторон : 2,35:1
Режим частоты кадров : Постоянный
Частота кадров : 23,976 кадра/сек
Цветовое пространство : YUV
Субдискретизация насыщенности : 4:2:0
Битовая глубина : 8 бит
Тип развёртки : Прогрессивная
Бит/(Пиксели*Кадры) : 0.387
Размер потока : 14,7 Гбайт (66%)
Заголовок : 1920x816 at 23.976 fps, ~14982 kbps avg
Библиотека кодирования : x264 core 140 r2377+40 929f149 tMod [8-bit@4:2:0 X86_64]
Настройки программы : cabac=1 / ref=5 / deblock=1:-2:-2 / analyse=0x3:0x113 / me=umh / subme=11 / psy=1 / fade_compensate=0.00 / psy_rd=1.00:0.00 / mixed_ref=1 / me_range=48 / chroma_me=1 / trellis=2 / 8x8dct=1 / cqm=0 / deadzone=21,11 / fast_pskip=1 / chroma_qp_offset=-2 / threads=12 / lookahead_threads=2 / sliced_threads=0 / nr=0 / decimate=1 / interlaced=0 / bluray_compat=0 / constrained_intra=0 / fgo=0 / bframes=9 / b_pyramid=2 / b_adapt=2 / b_bias=0 / direct=3 / weightb=1 / open_gop=0 / weightp=2 / keyint=250 / keyint_min=23 / scenecut=40 / intra_refresh=0 / rc_lookahead=60 / rc=crf / mbtree=0 / crf=18.0000 / qcomp=0.60 / qpmin=0:0:0 / qpmax=69:69:69 / qpstep=4 / vbv_maxrate=62500 / vbv_bufsize=78125 / crf_max=0.0 / nal_hrd=none / filler=0 / ip_ratio=1.40 / pb_ratio=1.30 / aq=4:0.80 / aq-sensitivity=11.00 / aq-factor=1.00:1.00:1.00 / aq2=1:0.60 / aq2-sensitivity=9.00 / aq2-factor=1.00:1.00:1.00 / aq3=1:[0.60:0.60]:[0.60:0.60]:[0.60:0.60]:[0.60:0.60] / aq3-sensitivity=10.00 / aq3-factor=[1.00:1.00]:[1.00:1.00]:[1.00:1.00] / aq3-boundary=192:64:24
Язык : English
Default : Да
Forced : Нет
Основные цвета : BT.709
Характеристики трансфера : BT.709
Коэффициенты матрицы : BT.709

Аудио #1
Идентификатор : 2
Формат : AC-3
Формат/Информация : Audio Coding 3
Расширение режима : CM (complete main)
Параметр Endianness формата : Big
Идентификатор кодека : A_AC3
Продолжительность : 2 ч. 24 м.
Вид битрейта : Постоянный
Битрейт : 384 Кбит/сек
Каналы : 6 каналов
Расположение каналов : Front: L C R, Side: L R, LFE
Частота : 48,0 КГц
Битовая глубина : 16 бит
Метод сжатия : С потерями
Размер потока : 396 Мбайт (2%)
Заголовок : Русский АСЗ 384 kbps - Дубляж (R5)
Язык : Russian
Default : Да
Forced : Нет

Аудио #2
Идентификатор : 3
Формат : AC-3
Формат/Информация : Audio Coding 3
Расширение режима : CM (complete main)
Параметр Endianness формата : Big
Идентификатор кодека : A_AC3
Продолжительность : 2 ч. 24 м.
Вид битрейта : Постоянный
Битрейт : 448 Кбит/сек
Каналы : 6 каналов
Расположение каналов : Front: L C R, Side: L R, LFE
Частота : 48,0 КГц
Битовая глубина : 16 бит
Метод сжатия : С потерями
Размер потока : 463 Мбайт (2%)
Заголовок : Русский АСЗ 448 kbps - ПД (Tycoon)
Язык : Russian
Default : Нет
Forced : Нет

Аудио #3
Идентификатор : 4
Формат : DTS
Формат/Информация : Digital Theater Systems
Режим : 16
Параметр Endianness формата : Big
Идентификатор кодека : A_DTS
Продолжительность : 2 ч. 24 м.
Вид битрейта : Постоянный
Битрейт : 1509 Кбит/сек
Каналы : 6 каналов
Расположение каналов : Front: L C R, Side: L R, LFE
Частота : 48,0 КГц
Битовая глубина : 16 бит
Метод сжатия : С потерями
Размер потока : 1,52 Гбайт (7%)
Заголовок : Русский DTS 1509 kbps - АП (Ю. Немахов)
Язык : Russian
Default : Нет
Forced : Нет

Аудио #4
Идентификатор : 5
Формат : DTS
Формат/Информация : Digital Theater Systems
Режим : 16
Параметр Endianness формата : Big
Идентификатор кодека : A_DTS
Продолжительность : 2 ч. 24 м.
Вид битрейта : Постоянный
Битрейт : 1509 Кбит/сек
Каналы : 6 каналов
Расположение каналов : Front: L C R, Side: L R, LFE
Частота : 48,0 КГц
Битовая глубина : 16 бит
Метод сжатия : С потерями
Размер потока : 1,52 Гбайт (7%)
Заголовок : Русский DTS 1509 kbps - АП (Визгунов)
Язык : Russian
Default : Нет
Forced : Нет

Аудио #5
Идентификатор : 6
Формат : AC-3
Формат/Информация : Audio Coding 3
Расширение режима : CM (complete main)
Параметр Endianness формата : Big
Идентификатор кодека : A_AC3
Продолжительность : 2 ч. 24 м.
Вид битрейта : Постоянный
Битрейт : 448 Кбит/сек
Каналы : 6 каналов
Расположение каналов : Front: L C R, Side: L R, LFE
Частота : 48,0 КГц
Битовая глубина : 16 бит
Метод сжатия : С потерями
Размер потока : 463 Мбайт (2%)
Заголовок : Русский АСЗ 448 kbps - АП (Немахов)
Язык : Russian
Default : Нет
Forced : Нет

Аудио #6
Идентификатор : 7
Формат : AC-3
Формат/Информация : Audio Coding 3
Расширение режима : CM (complete main)
Параметр Endianness формата : Big
Идентификатор кодека : A_AC3
Продолжительность : 2 ч. 24 м.
Вид битрейта : Постоянный
Битрейт : 448 Кбит/сек
Каналы : 6 каналов
Расположение каналов : Front: L C R, Side: L R, LFE
Частота : 48,0 КГц
Битовая глубина : 16 бит
Метод сжатия : С потерями
Размер потока : 463 Мбайт (2%)
Заголовок : Русский АСЗ 448 kbps - АП (Визгунов)
Язык : Russian
Default : Нет
Forced : Нет

Аудио #7
Идентификатор : 8
Формат : AC-3
Формат/Информация : Audio Coding 3
Расширение режима : CM (complete main)
Параметр Endianness формата : Big
Идентификатор кодека : A_AC3
Продолжительность : 2 ч. 24 м.
Вид битрейта : Постоянный
Битрейт : 640 Кбит/сек
Каналы : 6 каналов
Расположение каналов : Front: L C R, Side: L R, LFE
Частота : 48,0 КГц
Битовая глубина : 16 бит
Метод сжатия : С потерями
Размер потока : 661 Мбайт (3%)
Заголовок : Украинский АСЗ 640 kbps - ПМ (ICTV)
Язык : Ukrainian
Default : Нет
Forced : Нет

Аудио #8
Идентификатор : 9
Формат : DTS
Формат/Информация : Digital Theater Systems
Режим : 16
Параметр Endianness формата : Big
Идентификатор кодека : A_DTS
Продолжительность : 2 ч. 24 м.
Вид битрейта : Постоянный
Битрейт : 1509 Кбит/сек
Каналы : 6 каналов
Расположение каналов : Front: L C R, Side: L R, LFE
Частота : 48,0 КГц
Битовая глубина : 16 бит
Метод сжатия : С потерями
Размер потока : 1,52 Гбайт (7%)
Заголовок : Английский DTS 1509 kbps - оригинал
Язык : English
Default : Нет
Forced : Нет

Текст #1
Идентификатор : 10
Формат : UTF-8
Идентификатор кодека : S_TEXT/UTF8
Идентификатор кодека/Информация : UTF-8 Plain Text
Заголовок : Русские -Tycoon
Язык : Russian
Default : Нет
Forced : Нет

Текст #2
Идентификатор : 11
Формат : UTF-8
Идентификатор кодека : S_TEXT/UTF8
Идентификатор кодека/Информация : UTF-8 Plain Text
Заголовок : Русские - R5
Язык : Russian
Default : Нет
Forced : Нет

Текст #3
Идентификатор : 12
Формат : UTF-8
Идентификатор кодека : S_TEXT/UTF8
Идентификатор кодека/Информация : UTF-8 Plain Text
Заголовок : Английские
Язык : English
Default : Нет
Forced : Нет

Меню
00:00:00.000 : en:The Next Champ
00:08:00.021 : en:Past Due
00:16:23.023 : en:Washed-Up
00:23:22.818 : en:Decommisioned
00:28:37.382 : en:Cut Off
00:38:53.039 : en:Emergency Relief
00:44:00.179 : en:One Last Chance
00:49:00.854 : en:Going in Hungry
00:58:43.686 : en:Sizing Up the Champ
01:02:53.186 : en:Back to Even
01:10:40.694 : en:Getting Serious
01:14:48.275 : en:Don't Back Down
01:22:51.299 : en:Count Your Blessings
01:28:17.000 : en:Know What You're Fighting For
01:36:17.938 : en:Giving Hope
01:40:44.163 : en:Find a Way Out
01:44:23.799 : en:Tremendous Underdog
01:54:34.742 : en:The Main Event
02:04:41.807 : en:Championship Round
02:17:43.380 : en:End Credits



_________________
Проголосуй за трекер Открытый торрент трекер - RUS-MEDIA.ORG

Проголосуй Открытый торрент трекер - RUS-MEDIA.ORG



реклама партнёра


Вернуться к началу
 Профиль Отправить личное сообщение  
 
   Похожие торренты   Автор   Торрент   Размер 
В этой теме нет новых непрочитанных сообщений. Нокдаун / Cinderella Man [драма, биография, спорт, 2005] BDRip 1080p, Mvo

salma3

72 | 27

4.37 ГБ

В этой теме нет новых непрочитанных сообщений. Эрин Брокович / Erin Brockovich [Драма, мелодрама, биография, реальные события, 2000] BDRip 1080p, Dub+Sub

salma3

25 | 4

9.36 ГБ

В этой теме нет новых непрочитанных сообщений. Сделано в Дагенхэме / Made in Dagenham [Драма, комедия, биография, история, реальные события, 2010] ВDRip 720р, Dvo+Sub [Студия Elrom]

salma3

34 | 9

5.6 ГБ

В этой теме нет новых непрочитанных сообщений. 100 метров / 100 metros [Комедия, драма, реальные события, 2016] BDRip, Avo

salma3

1072 | 155

1.46 ГБ

В этой теме нет новых непрочитанных сообщений. Пучина / Djúpið (Бальтасар Кормакур) [2012, Драма, реальные события, BDRip 720p] dvo

Nickolas3435

143 | 5

4.91 ГБ

В этой теме нет новых непрочитанных сообщений. Битва за Севастополь (Сергей Мокрицкий) [Военный, ВОВ, драма, реальные события, 2015] BDRip 1080p

Dracon

1 | 0

10.29 ГБ

В этой теме нет новых непрочитанных сообщений. Битва за Севастополь (Сергей Мокрицкий) [Военный, ВОВ, драма, реальные события, 2015] BDRip 720p

Dracon

0 | 1

6.13 ГБ


Начать новую тему Ответить на тему  [ 1 сообщение ] 




Для Мосгорсуда, Роскомнадзора и рекламодателей:: mosgorsud-torrent[собачка]yandex.ru