Торрент файл
скачать торрент магнет ссылка Добавлен: 21 сен 2017, 21:29
Размер: 17.99 ГБ
Сидеров: 25
Личеров: 17
Статус: (salma3)
Автор

СообщениеДобавлено: 21 сен 2017, 21:29 

Не в сети
Супермодератор
Аватара пользователя
Дата регистрации:
15 фев 2012, 16:44
Возраст: 29
Спасибо: 7379 / 2147
Сообщения: 76077
Год выхода: 2006
Жанр: ужасы
Режиссер: Джонатан Либесман

В ролях: Джордана Брюстер, Тейлор Хэндли, Диора Бэрд, Мэттью Бомер, Р. Ли Эрми, Эндрю Бринярски, Ли Тергесен, Терренс Эванс, Кэти Ламкин, Мэриетта Мэрич

О фильме: Братья вместе со своими подружками отправляются в автомобильное путешествие, которое должно стать последним развлечением до того, как их отправят служить во Вьетнам.

По дороге они попадают в аварию, и тут появляется местный шериф, знакомство с которым становится началом сущего кошмара: они оказываются в мрачном доме, в стенах которого воспитывается беспощадный убийца по прозвищу Кожаное Лицо…



Страна: США
Продолжительность: 01:32:13
Перевод: Профессиональный (двухголосый закадровый) П. Гланц и И. Королёва
Субтитры: русские, английские

Файл
Качество: BDRemux 1080р
Видео: VC-1 / NTSC 16:9 / 1920x1080 (1.85:1) / 24983 kbps / 25 fps / 0.483 bit/pixel / Advanced@L3
Аудио 1: Russian / DTS / 5.1 Ch / 48 kHz / 768 kbps / 24 bit / DVO
Аудио 2: English / DTS-HD Master Audio / 5.1 Ch / 48 kHz / 2190 kbps / 16-bit (DTS Core: 5.1 Ch / 48 kHz / 1510 kbps / 16-bit) / Original

Общее
Уникальный идентификатор : 175985095300997942571697267513219534546 (0x84657F195A526E2F94C9D21718AACED2)
Полное имя : D:The Texas Chainsaw Massacre - The Beginning.UNRATED.2006.BDRemux.1080p.mkv
Формат : Matroska
Версия формата : Version 2
Размер файла : 18,0 Гбайт
Продолжительность : 1 ч. 32 м.
Режим общего битрейта : Переменный
Общий поток : 27,9 Мбит/сек
Дата кодирования : UTC 2012-09-29 12:57:26
Программа кодирования : mkvmerge v5.8.0 ('No Sleep / Pillow') built on Sep 2 2012 15:37:04
Библиотека кодирования : libebml v1.2.3 + libmatroska v1.3.0

Видео
Идентификатор : 1
Формат : VC-1
Профиль формата : Advanced@L3
Идентификатор кодека : V_MS/VFW/FOURCC / WVC1
Идентификатор кодека/Подсказка : Microsoft
Продолжительность : 1 ч. 32 м.
Битрейт : 25,1 Мбит/сек
Ширина : 1920 пикселей
Высота : 1080 пикселей
Соотношение сторон : 16:9
Режим частоты кадров : Постоянный
Частота кадров : 25,000 кадров/сек
Субдискретизация насыщенности : 4:2:0
Битовая глубина : 8 бит
Тип развёртки : Прогрессивная
Порядок развёртки : Верхнее поле первое
Метод сжатия : С потерями
Бит/(Пиксели*Кадры) : 0.483
Размер потока : 16,1 Гбайт (90%)
Default : Да
Forced : Нет

Аудио #1
Идентификатор : 2
Формат : DTS
Формат/Информация : Digital Theater Systems
Идентификатор кодека : A_DTS
Продолжительность : 1 ч. 32 м.
Вид битрейта : Постоянный
Битрейт : 755 Кбит/сек
Каналы : 6 каналов
Расположение каналов : Front: L C R, Side: L R, LFE
Частота : 48,0 КГц
Битовая глубина : 24 бит
Метод сжатия : С потерями
Размер потока : 498 Мбайт (3%)
Заголовок : DVO
Язык : Russian
Default : Да
Forced : Нет

Аудио #2
Идентификатор : 3
Формат : DTS
Формат/Информация : Digital Theater Systems
Профиль формата : MA / Core
Идентификатор кодека : A_DTS
Продолжительность : 1 ч. 32 м.
Вид битрейта : Переменный
Битрейт : 1576 Кбит/сек / 1510 Кбит/сек
Каналы : 6 каналов
Расположение каналов : Front: L C R, Side: L R, LFE
Частота : 48,0 КГц
Битовая глубина : 16 бит
Метод сжатия : Без потерь / Lossy
Заголовок : Original
Язык : English
Default : Нет
Forced : Нет

Текст #1
Идентификатор : 4
Формат : UTF-8
Идентификатор кодека : S_TEXT/UTF8
Идентификатор кодека/Информация : UTF-8 Plain Text
Заголовок : RUS
Язык : Russian
Default : Нет
Forced : Нет

Текст #2
Идентификатор : 5
Формат : UTF-8
Идентификатор кодека : S_TEXT/UTF8
Идентификатор кодека/Информация : UTF-8 Plain Text
Заголовок : Original
Язык : English
Default : Нет
Forced : Нет

Меню
00:00:00.000 : en:
00:08:11.839 : en:
00:15:28.640 : en:
00:23:53.880 : en:
00:31:52.600 : en:
00:39:22.400 : en:
00:48:14.400 : en:
00:55:36.080 : en:
01:04:54.640 : en:
01:12:15.120 : en:
01:19:46.960 : en:
01:27:10.720 : en:


_________________
Проголосуй за трекер Открытый торрент трекер - RUS-MEDIA.ORG

Проголосуй Открытый торрент трекер - RUS-MEDIA.ORG


Вернуться к началу
 Профиль Отправить личное сообщение  
 
   Похожие торренты   Автор   Торрент   Размер 
В этой теме нет новых непрочитанных сообщений. Техасская резня бензопилой 3: Кожаное лицо / Leatherface: Texas Chainsaw Massacre III [ужасы, триллер, 1990] BDRip 1080p, Mvo [Unrated]

salma3

0 | 0

8.78 ГБ

В этой теме нет новых непрочитанных сообщений. Техасская резня бензопилой 2 / The Texas Chainsaw Massacre 2 [ужасы, комедия, 1986] BDRip 720p, Dvo+Sub

salma3

0 | 0

11.71 ГБ

В этой теме нет новых непрочитанных сообщений. Техасская резня бензопилой / The Texas Chain Saw Massacre [ужасы, триллер, 1974] BDRemux 1080р, Dvo+Sub [40th Anniversary Restoration]

salma3

0 | 0

22.12 ГБ

В этой теме нет новых непрочитанных сообщений. Резня в больнице / Hospital Massacre [ужасы, триллер, 1981] BDRemux 1080р, Avo

salma3

10 | 3

17.96 ГБ

В этой теме нет новых непрочитанных сообщений. Техасская резня бензопилой: Кожаное лицо / Leatherface [ужасы, триллер, 2017] WEB-DLRip, Mvo

salma3

1740 | 234

1.37 ГБ

В этой теме нет новых непрочитанных сообщений. Техасская резня бензопилой: Кожаное лицо / Leatherface [ужасы, триллер, 2017] WEB-DLRip, Dub [iTunes]

salma3

154 | 95

745.47 МБ

В этой теме нет новых непрочитанных сообщений. Техасская резня бензопилой: Кожаное лицо / Leatherface [Ужасы, триллер, 2017] BDRip, Dub [iTunes]

salma3

461 | 38

1.42 ГБ


Начать новую тему Ответить на тему  [ 1 сообщение ] 




Для Мосгорсуда, Роскомнадзора и рекламодателей:: mosgorsud-torrent[собачка]yandex.ru
cron