Торрент файл
скачать торрент магнет ссылка Добавлен: 18 сен 2017, 14:31
Размер: 5.25 ГБ
Сидеров: 34
Личеров: 19
Статус: (salma3)
Автор

СообщениеДобавлено: 18 сен 2017, 14:31 

Не в сети
Супермодератор
Аватара пользователя
Дата регистрации:
15 фев 2012, 16:44
Возраст: 28
Спасибо: 7203 / 2147
Сообщения: 64881
Год выхода: 1981
Жанр: боевик, триллер, мелодрама
Режиссер: Ален Делон

В ролях: Ален Делон, Анн Парийо, Мишель Оклер, Даниэль Секкальди, Жан-Пьер Даррас, Ксавье Депра, Жак Риспаль, Жерар Эрольд, Пьер Бело, Анник Алан

О фильме:
К бывшему полицейскому, а ныне частному детективу Шука обращается дама, у которой пропала слепая дочь. Вскоре Шука понимает, что участие в поисках девушки — это искусно расставленная именно для него западня…



Страна: Франция
Продолжительность: 01:46:24
Перевод: Профессиональный (многоголосый, закадровый) Спб 5-й канал + Профессиональный (многоголосый, закадровый) HTB + Профессиональный (многоголосый, закадровый) OPT + Профессиональный (многоголосый, закадровый) CP-Digital + Профессиональный (многоголосый, закадровый) т/к Домашний + Авторский (одноголосый, закадровый) А.Гаврилов

Файл
Качество: BDRip 720p
Формат: Matroska
Видео: 1210х720 at 24.000 fps, x264@L4.1, ~5579 kbps
Аудио#1: Russian: 48 kHz, AC3, 2/0 (L,R) ch, ~192 kbps avg |Многоголосый закадровый, Спб 5-й канал|
Аудио#2: Russian: 48 kHz, AC3, 2/0 (L,R) ch, ~192 kbps avg |Многоголосый закадровый, HTB|
Аудио#3: Russian: 48 kHz, AC3, 2/0 (L,R) ch, ~192 kbps avg |Многоголосый закадровый, OPT|
Аудио#4: Russian: 48 kHz, AC3, 2/0 (L,R) ch, ~192 kbps avg |Многоголосый закадровый, CP-Digital|
Аудио#5: Russian: 48 kHz, AC3, 2/0 (L,R) ch, ~192 kbps avg |Многоголосый закадровый, т/к Домашний|
Аудио#6: Russian: 48 kHz, AC3, 2/0 (L,R) ch, ~192 kbps avg |Авторский, А.Гаврилов|
Аудио#7: French: 48 kHz, AC3, 3/2 (L,C,R,l,r) + LFE ch, ~192 kbps avg
Субтитры: Russian

***Сохранены оригинальные главы как на Blu-ray.
***Релиз - msltel.

Общее
Уникальный идентификатор : 203840591688313075668700101884967902353 (0x995A451AE166696191B635389AE7DC91)
Полное имя : За шкуру полицейского.1981.BDRip.720p by msltel.mkv
Формат : Matroska
Версия формата : Version 4 / Version 2
Размер файла : 5,25 Гбайт
Продолжительность : 1 ч. 46 м.
Общий поток : 7063 Кбит/сек
Название фильма : Rip by msltel
Дата кодирования : UTC 2017-09-18 08:21:18
Программа кодирования : mkvmerge v8.2.0 ('World of Adventure') 64bit
Библиотека кодирования : libebml v1.3.1 + libmatroska v1.4.2

Видео
Идентификатор : 1
Формат : AVC
Формат/Информация : Advanced Video Codec
Профиль формата : High@L4.1
Параметр CABAC формата : Да
Параметр ReFrames формата : 9 кадров
Идентификатор кодека : V_MPEG4/ISO/AVC
Продолжительность : 1 ч. 46 м.
Битрейт : 5579 Кбит/сек
Ширина : 1210 пикселей
Высота : 720 пикселей
Соотношение сторон : 1,681
Режим частоты кадров : Постоянный
Частота кадров : 24,000 кадра/сек
Цветовое пространство : YUV
Субдискретизация насыщенности : 4:2:0
Битовая глубина : 8 бит
Тип развёртки : Прогрессивная
Бит/(Пиксели*Кадры) : 0.267
Размер потока : 4,15 Гбайт (79%)
Библиотека кодирования : x264 core 146 r2538 121396c
Настройки программы : cabac=1 / ref=9 / deblock=1:-3:-2 / analyse=0x3:0x113 / me=umh / subme=11 / psy=1 / psy_rd=1.00:0.15 / mixed_ref=1 / me_range=32 / chroma_me=1 / trellis=2 / 8x8dct=1 / cqm=0 / deadzone=21,11 / fast_pskip=0 / chroma_qp_offset=-3 / threads=6 / lookahead_threads=1 / sliced_threads=0 / nr=0 / decimate=1 / interlaced=0 / bluray_compat=0 / constrained_intra=0 / bframes=7 / b_pyramid=2 / b_adapt=2 / b_bias=0 / direct=1 / weightb=1 / open_gop=0 / weightp=2 / keyint=230 / keyint_min=23 / scenecut=40 / intra_refresh=0 / rc_lookahead=40 / rc=crf / mbtree=0 / crf=18.6 / qcomp=0.60 / qpmin=0 / qpmax=69 / qpstep=4 / vbv_maxrate=62500 / vbv_bufsize=78125 / crf_max=0.0 / nal_hrd=none / filler=0 / ip_ratio=1.40 / pb_ratio=1.30 / aq=1:1.00
Язык : French
Default : Да
Forced : Нет

Аудио #1
Идентификатор : 2
Формат : AC-3
Формат/Информация : Audio Coding 3
Профиль формата : Dolby Digital
Расширение режима : CM (complete main)
Параметр Endianness формата : Big
Идентификатор кодека : A_AC3
Продолжительность : 1 ч. 46 м.
Вид битрейта : Постоянный
Битрейт : 192 Кбит/сек
Каналы : 2 канала
Расположение каналов : Front: L R
Частота : 48,0 КГц
Битовая глубина : 16 бит
Метод сжатия : С потерями
Размер потока : 146 Мбайт (3%)
Заголовок : MVO. Спб 5 канал
Язык : Russian
Default : Да
Forced : Нет

Аудио #2
Идентификатор : 3
Формат : AC-3
Формат/Информация : Audio Coding 3
Профиль формата : Dolby Digital
Расширение режима : CM (complete main)
Параметр Endianness формата : Big
Идентификатор кодека : A_AC3
Продолжительность : 1 ч. 46 м.
Вид битрейта : Постоянный
Битрейт : 192 Кбит/сек
Каналы : 2 канала
Расположение каналов : Front: L R
Частота : 48,0 КГц
Битовая глубина : 16 бит
Метод сжатия : С потерями
Размер потока : 146 Мбайт (3%)
Заголовок : MVO.HTB
Язык : Russian
Default : Нет
Forced : Нет

Аудио #3
Идентификатор : 4
Формат : AC-3
Формат/Информация : Audio Coding 3
Профиль формата : Dolby Digital
Расширение режима : CM (complete main)
Параметр Endianness формата : Big
Идентификатор кодека : A_AC3
Продолжительность : 1 ч. 46 м.
Вид битрейта : Постоянный
Битрейт : 192 Кбит/сек
Каналы : 2 канала
Расположение каналов : Front: L R
Частота : 48,0 КГц
Битовая глубина : 16 бит
Метод сжатия : С потерями
Размер потока : 146 Мбайт (3%)
Заголовок : MVO.OPT
Язык : Russian
Default : Нет
Forced : Нет

Аудио #4
Идентификатор : 5
Формат : AC-3
Формат/Информация : Audio Coding 3
Расширение режима : CM (complete main)
Параметр Endianness формата : Big
Идентификатор кодека : A_AC3
Продолжительность : 1 ч. 46 м.
Вид битрейта : Постоянный
Битрейт : 192 Кбит/сек
Каналы : 2 канала
Расположение каналов : Front: L R
Частота : 48,0 КГц
Битовая глубина : 16 бит
Метод сжатия : С потерями
Размер потока : 146 Мбайт (3%)
Заголовок : MVO.CP Digital
Язык : Russian
Default : Нет
Forced : Нет

Аудио #5
Идентификатор : 6
Формат : AC-3
Формат/Информация : Audio Coding 3
Расширение режима : CM (complete main)
Параметр Endianness формата : Big
Идентификатор кодека : A_AC3
Продолжительность : 1 ч. 46 м.
Вид битрейта : Постоянный
Битрейт : 192 Кбит/сек
Каналы : 2 канала
Расположение каналов : Front: L R
Частота : 48,0 КГц
Битовая глубина : 16 бит
Метод сжатия : С потерями
Размер потока : 146 Мбайт (3%)
Заголовок : MVO.Домашний
Язык : Russian
Default : Нет
Forced : Нет

Аудио #6
Идентификатор : 7
Формат : AC-3
Формат/Информация : Audio Coding 3
Расширение режима : CM (complete main)
Параметр Endianness формата : Big
Идентификатор кодека : A_AC3
Продолжительность : 1 ч. 46 м.
Вид битрейта : Постоянный
Битрейт : 192 Кбит/сек
Каналы : 2 канала
Расположение каналов : Front: L R
Частота : 48,0 КГц
Битовая глубина : 16 бит
Метод сжатия : С потерями
Размер потока : 146 Мбайт (3%)
Заголовок : Андрей Гаврилов
Язык : Russian
Default : Нет
Forced : Нет

Аудио #7
Идентификатор : 8
Формат : AC-3
Формат/Информация : Audio Coding 3
Расширение режима : CM (complete main)
Параметр Endianness формата : Big
Идентификатор кодека : A_AC3
Продолжительность : 1 ч. 46 м.
Вид битрейта : Постоянный
Битрейт : 192 Кбит/сек
Каналы : 6 каналов
Расположение каналов : Front: L C R, Side: L R, LFE
Частота : 48,0 КГц
Битовая глубина : 16 бит
Метод сжатия : С потерями
Размер потока : 146 Мбайт (3%)
Заголовок : original
Язык : French
Default : Нет
Forced : Нет

Текст
Идентификатор : 9
Формат : UTF-8
Идентификатор кодека : S_TEXT/UTF8
Идентификатор кодека/Информация : UTF-8 Plain Text
Заголовок : русские
Язык : Russian
Default : Нет
Forced : Нет

Меню
00:00:00.000 : :Chapter 01
00:04:04.291 : :Chapter 02
00:17:25.333 : :Chapter 03
00:24:59.250 : :Chapter 04
00:33:56.958 : :Chapter 05
00:42:43.833 : :Chapter 06
00:54:00.833 : :Chapter 07
01:01:25.125 : :Chapter 08
01:11:31.625 : :Chapter 09
01:23:03.833 : :Chapter 10
01:31:47.583 : :Chapter 11
01:42:27.833 : :Chapter 12


_________________
Проголосуй за трекер Открытый торрент трекер - RUS-MEDIA.ORG

Проголосуй Открытый торрент трекер - RUS-MEDIA.ORG


Вернуться к началу
 Профиль Отправить личное сообщение  
 
   Похожие торренты   Автор   Торрент   Размер 
В этой теме нет новых непрочитанных сообщений. За шкуру полицейского / Pour la peau d'un flic [боевик, мелодрама, криминал, 1981] BDRip 720p, Mvo+Sub

salma3

71 | 61

5.93 ГБ

В этой теме нет новых непрочитанных сообщений. Отец полицейского 2 / Father And Guns 2 / De père en flic 2 [комедия, 2017] BDRip 720p, Mvo

salma3

18 | 0

3.76 ГБ

В этой теме нет новых непрочитанных сообщений. Слово полицейского / Parole de flic [боевик, триллер, драма, 1985] HDTVRip, Mvo [НТВ]

salma3

0 | 0

1.45 ГБ

В этой теме нет новых непрочитанных сообщений. Отец полицейского 2 / Father And Guns 2 / De pere en flic 2 [комедия, 2017] HDRip, Mvo

salma3

112 | 24

1.46 ГБ

В этой теме нет новых непрочитанных сообщений. Отец полицейского 2 / Father And Guns 2 / De père en flic 2 [комедия, 2017] HDRip, Mvo

salma3

55 | 3

1.46 ГБ

В этой теме нет новых непрочитанных сообщений. Полицейская история / Flic Story [триллер, драма, криминал, 1975] BDRip 720p, Mvo+Dvo

salma3

29 | 1

4.63 ГБ

В этой теме нет новых непрочитанных сообщений. Девочка в матроске и автомат / Sêrâ-fuku to kikanjû [боевик, мелодрама, 1981] BDRip 720p, Avo

salma3

33 | 25

5.49 ГБ


Начать новую тему Ответить на тему  [ 1 сообщение ] 




Для Мосгорсуда, Роскомнадзора и рекламодателей:: mosgorsud-torrent[собачка]yandex.ru
cron