Торрент файл
скачать торрент магнет ссылка Добавлен: 18 сен 2017, 06:55
Размер: 4.47 ГБ
Сидеров: 70
Личеров: 16
Автор

СообщениеДобавлено: 18 сен 2017, 06:55 

Не в сети
Супермодератор
Аватара пользователя
Дата регистрации:
15 фев 2012, 16:44
Возраст: 28
Спасибо: 7226 / 2147
Сообщения: 68270
Год выхода: 2009
Жанр: фэнтези, драма, комедия
Режиссер: Стивен Херек

В ролях: Эллен Муф, Сильвия Стивенсон, Генри Йен Кусик, Тайрон Бенскин, Каллум Блу, Джастин Брэдли, Синди Басби, Джейд Карпентер, Кристал Даль, Сьюзэн Гловер, Джэсмин Гай, ...

О фильме: Фильм снят по мотивам известного телесериала «Мёртвые как я» и повествует о команде жнецов, собирающих души. Действие происходит спустя 4 года после событий, вошедших в сериал. Дэр Вафель Хаус сгорел, а главный жнец Руб ушел в отставку. У остальных появился новый босс — Камерон Кэйн — скользкий бизнесмен, который мало заботится о новоиспеченных мертвецах…



Страна: США
Продолжительность: 01:27:17
Перевод: Профессиональный (многоголосый, закадровый) ТВ3
- Профессиональный (двуголосый, закадровый) Ульпаней Эльром


Кодек: x264
Качество: WEBRip 1080p
Видео: 1920x1080, 6157 kbps, 23,976 fps
Аудио #1: AC-3, 2 ch, 192 kbps (Rus) - MVO ТВ3
Аудио #2: AC-3, 6 ch, 448 kbps (Rus) - DVO Ульпаней Эльром
Аудио #3: AC-3, 6 ch, 384 kbps (Eng)
Субтитры: русские, английские

Общее
Уникальный идентификатор : 173208272033774951149201653277815105890 (0x824EB3244B156AADB75CA857978A6962)
Полное имя : E:ТоррентМёртвые как я Жизнь после смерти (Dead Like Me Life After Death) 2009 WEBRip 1080pМёртвые как я Жизнь после смерти (Dead Like Me Life After Death) 2009 WEBRip 1080p.mkv
Формат : Matroska
Версия формата : Version 2
Размер файла : 4,47 Гбайт
Продолжительность : 1 ч. 27 м.
Режим общего битрейта : Переменный
Общий поток : 7327 Кбит/сек
Дата кодирования : UTC 2017-09-07 00:43:15
Программа кодирования : mkvmerge v4.0.0 ('The Stars were mine') сборка от Jun 6 2010 16:18:42
Библиотека кодирования : libebml v1.0.0 + libmatroska v1.0.0

Видео
Идентификатор : 1
Формат : AVC
Формат/Информация : Advanced Video Codec
Профиль формата : Main@L4.0
Параметр CABAC формата : Да
Параметр ReFrames формата : 3 кадра
Идентификатор кодека : V_MPEG4/ISO/AVC
Продолжительность : 1 ч. 27 м.
Вид битрейта : Переменный
Битрейт : 6157 Кбит/сек
Номинальный битрейт : 6490 Кбит/сек
Максимальный битрейт : 9735 Кбит/сек
Ширина : 1920 пикселей
Высота : 1080 пикселей
Соотношение сторон : 16:9
Режим частоты кадров : Постоянный
Частота кадров : 23,976 кадра/сек
Цветовое пространство : YUV
Субдискретизация насыщенности : 4:2:0
Битовая глубина : 8 бит
Тип развёртки : Прогрессивная
Бит/(Пиксели*Кадры) : 0.124
Размер потока : 3,75 Гбайт (84%)
Библиотека кодирования : x264 core 118
Настройки программы : cabac=1 / ref=3 / deblock=1:0:0 / analyse=0x1:0x111 / me=umh / subme=10 / psy=1 / psy_rd=1.00:0.00 / mixed_ref=1 / me_range=24 / chroma_me=1 / trellis=2 / 8x8dct=0 / cqm=0 / deadzone=21,11 / fast_pskip=1 / chroma_qp_offset=-2 / threads=8 / sliced_threads=0 / nr=0 / decimate=1 / interlaced=0 / bluray_compat=0 / constrained_intra=0 / bframes=2 / b_pyramid=0 / b_adapt=2 / b_bias=0 / direct=3 / weightb=1 / open_gop=0 / weightp=2 / keyint=48 / keyint_min=25 / scenecut=0 / intra_refresh=0 / rc_lookahead=0 / rc=2pass / mbtree=1 / bitrate=6490 / ratetol=1.0 / qcomp=0.50 / qpmin=6 / qpmax=51 / qpstep=4 / cplxblur=20.0 / qblur=0.5 / vbv_maxrate=9735 / vbv_bufsize=12980 / nal_hrd=vbr / ip_ratio=1.40 / aq=1:1.00
Язык : English
Default : Нет
Forced : Нет

Аудио #1
Идентификатор : 2
Формат : AC-3
Формат/Информация : Audio Coding 3
Расширение режима : CM (complete main)
Параметр Endianness формата : Big
Идентификатор кодека : A_AC3
Продолжительность : 1 ч. 27 м.
Вид битрейта : Постоянный
Битрейт : 192 Кбит/сек
Каналы : 2 канала
Расположение каналов : Front: L R
Частота : 48,0 КГц
Битовая глубина : 16 бит
Метод сжатия : С потерями
Размер потока : 120 Мбайт (3%)
Заголовок : MVO ТВ3
Язык : Russian
Default : Нет
Forced : Нет

Аудио #2
Идентификатор : 3
Формат : AC-3
Формат/Информация : Audio Coding 3
Расширение режима : CM (complete main)
Параметр Endianness формата : Big
Идентификатор кодека : A_AC3
Продолжительность : 1 ч. 27 м.
Вид битрейта : Постоянный
Битрейт : 448 Кбит/сек
Каналы : 6 каналов
Расположение каналов : Front: L C R, Side: L R, LFE
Частота : 48,0 КГц
Битовая глубина : 16 бит
Метод сжатия : С потерями
Размер потока : 280 Мбайт (6%)
Заголовок : DVO студия Ульпаней Эльром
Язык : Russian
Default : Нет
Forced : Нет

Аудио #3
Идентификатор : 4
Формат : AC-3
Формат/Информация : Audio Coding 3
Расширение режима : CM (complete main)
Параметр Endianness формата : Big
Идентификатор кодека : A_AC3
Продолжительность : 1 ч. 27 м.
Вид битрейта : Постоянный
Битрейт : 384 Кбит/сек
Каналы : 6 каналов
Расположение каналов : Front: L C R, Side: L R, LFE
Частота : 48,0 КГц
Битовая глубина : 16 бит
Метод сжатия : С потерями
Размер потока : 240 Мбайт (5%)
Язык : English
Default : Нет
Forced : Нет

Текст #1
Идентификатор : 5
Формат : UTF-8
Идентификатор кодека : S_TEXT/UTF8
Идентификатор кодека/Информация : UTF-8 Plain Text
Заголовок : Forced
Язык : Russian
Default : Нет
Forced : Нет

Текст #2
Идентификатор : 6
Формат : UTF-8
Идентификатор кодека : S_TEXT/UTF8
Идентификатор кодека/Информация : UTF-8 Plain Text
Заголовок : Notabenoid
Язык : Russian
Default : Нет
Forced : Нет

Текст #3
Идентификатор : 7
Формат : UTF-8
Идентификатор кодека : S_TEXT/UTF8
Идентификатор кодека/Информация : UTF-8 Plain Text
Заголовок : n0mad
Язык : Russian
Default : Нет
Forced : Нет

Текст #4
Идентификатор : 8
Формат : UTF-8
Идентификатор кодека : S_TEXT/UTF8
Идентификатор кодека/Информация : UTF-8 Plain Text
Язык : English
Default : Нет
Forced : Нет



_________________
Проголосуй за трекер Открытый торрент трекер - RUS-MEDIA.ORG

Проголосуй Открытый торрент трекер - RUS-MEDIA.ORG


Вернуться к началу
 Профиль Отправить личное сообщение  
 
   Похожие торренты   Автор   Торрент   Размер 
В этой теме нет новых непрочитанных сообщений. Тетрадь смерти / Death Note [ужасы, фэнтези, боевик, 2017] WEBRip 1080p, Mvo

salma3

0 | 0

9.86 ГБ

В этой теме нет новых непрочитанных сообщений. Подстава / Жизнь и смерть Бобби Зи / The Death and Life of Bobby Z [боевик, триллер, драма, 2007] BDRip 1080p, Mvo

salma3

7 | 5

8.02 ГБ

В этой теме нет новых непрочитанных сообщений. Подстава / Жизнь и смерть Бобби Зи / The Death and Life of Bobby Z [боевик, триллер, драма, 2007] BDRip 1080p, Mvo

salma3

44 | 12

8.74 ГБ

В этой теме нет новых непрочитанных сообщений. Подстава / Жизнь и смерть Бобби Зи / The Death and Life of Bobby Z [боевик, триллер, драма, криминал, 2007] BDRemux 1080p, Mvo

salma3

17 | 9

19.34 ГБ

В этой теме нет новых непрочитанных сообщений. Жизнь и смерть Питера Селлерса / The Life and Death of Peter Sellers [драма, комедия, биография, 2004] HDTV 1080i, Mvo

salma3

112 | 47

6.52 ГБ

В этой теме нет новых непрочитанных сообщений. Жизнь в деталях / Life in Pieces [S02] [комедия, 2016] WEB-DL 1080p, Mvo [Fox Life]

salma3

7 | 12

18.73 ГБ

В этой теме нет новых непрочитанных сообщений. Тетрадь смерти / Death Note [ужасы, фэнтези, триллер, 2017] WEBRip-AVC, Mvo

salma3

23 | 7

1.45 ГБ


Начать новую тему Ответить на тему  [ 1 сообщение ] 




Для Мосгорсуда, Роскомнадзора и рекламодателей:: mosgorsud-torrent[собачка]yandex.ru
cron