Торрент файл
скачать торрент магнет ссылка Добавлен: 18 сен 2017, 02:09
Размер: 5.65 ГБ
Сидеров: 36
Личеров: 4
Статус: (salma3)
Автор

СообщениеДобавлено: 18 сен 2017, 02:09 

В сети
Супермодератор
Аватара пользователя
Дата регистрации:
15 фев 2012, 16:44
Возраст: 28
Спасибо: 7203 / 2147
Сообщения: 65000
Год выхода: 2014
Жанр: боевик, триллер
Режиссер: Ральф Зиман

В ролях: Индия Айсли, Сэмюэл Л. Джексон, Каллэн МакОлифф, Карл Бьюкс, Деон Лотз, Девилль Ванник, Теренс Бриджетт, Рассел Савадье, Лайонел Ньютон, Джеко Мюллер, ...

О фильме: Кайт - имя юной сироты-мстительницы. Давным-давно её родителей убил мафиози. Повзрослев и заручившись поддержкой лучшего друга отца Кайт встаёт на праведный путь мщения. Притворившись девицей лёгкого поведения Кайт ловит и пытает предполагаемых "шестёрок" главаря местной банды. Получив нужные сведения, она проникает в самые злачные районы города, в надежде добраться до местного воротилы теневого бизнеса. По пути отважная девушка переживёт немало разочарований. Но стоит ли ворошить прошлое, ведь всё может быть не так, как казалось в первый раз…



Страна: США, ЮАР
Продолжительность: 01:29:41
Перевод: Профессиональный (дублированный) R5 от «CD Land»

Кодек: x264
Качество: BDRip 1080p
Видео: 1920x804, 8000 kbps, 23,976 fps
Аудио #1: AC-3, 6 ch, 384 kbps (Rus) - Dub R5 «CD Land»
Аудио #2: AC-3, 6 ch, 640 kbps (Eng)
Субтитры: английские, немецкие

За исходник спасибо - Мастер5
x264 [info]: frame I:913 Avg QP:12.49 size:163086
x264 [info]: frame P:31888 Avg QP:15.31 size: 65095
x264 [info]: frame B:96201 Avg QP:17.47 size: 32752
x264 [info]: consecutive B-frames: 3.8% 4.5% 11.9% 24.2% 11.9% 36.1% 5.5% 0.6% 0.3% 0.4% 1.0%

Общее
Уникальный идентификатор : 184766562971320116293339106431295521301 (0x8B00BEE1EC0E228C923A3081D85F8215)
Полное имя : Кайт (Kite) 2014 BDRip 1080p.mkv
Формат : Matroska
Версия формата : Version 2
Размер файла : 5,65 Гбайт
Продолжительность : 1 ч. 29 м.
Общий поток : 9017 Кбит/сек
Дата кодирования : UTC 2017-07-24 05:29:37
Программа кодирования : mkvmerge v4.0.0 ('The Stars were mine') сборка от Jun 6 2010 16:18:42
Библиотека кодирования : libebml v1.0.0 + libmatroska v1.0.0

Видео
Идентификатор : 1
Формат : AVC
Формат/Информация : Advanced Video Codec
Профиль формата : High@L4.1
Параметр CABAC формата : Да
Параметр ReFrames формата : 5 кадров
Идентификатор кодека : V_MPEG4/ISO/AVC
Продолжительность : 1 ч. 29 м.
Битрейт : 8000 Кбит/сек
Ширина : 1920 пикселей
Высота : 804 пикселя
Соотношение сторон : 2,40:1
Режим частоты кадров : Постоянный
Частота кадров : 23,976 (24000/1001) кадра/сек
Цветовое пространство : YUV
Субдискретизация насыщенности : 4:2:0
Битовая глубина : 8 бит
Тип развёртки : Прогрессивная
Бит/(Пиксели*Кадры) : 0.216
Размер потока : 4,89 Гбайт (87%)
Библиотека кодирования : x264 core 146 r2538 121396c
Настройки программы : cabac=1 / ref=5 / deblock=1:-3:-3 / analyse=0x3:0x133 / me=umh / subme=11 / psy=1 / psy_rd=1.00:0.00 / mixed_ref=1 / me_range=32 / chroma_me=1 / trellis=2 / 8x8dct=1 / cqm=0 / deadzone=21,11 / fast_pskip=0 / chroma_qp_offset=-2 / threads=12 / lookahead_threads=2 / sliced_threads=0 / nr=0 / decimate=0 / interlaced=0 / bluray_compat=0 / constrained_intra=0 / bframes=10 / b_pyramid=2 / b_adapt=2 / b_bias=0 / direct=3 / weightb=1 / open_gop=0 / weightp=2 / keyint=240 / keyint_min=23 / scenecut=40 / intra_refresh=0 / rc=2pass / mbtree=0 / bitrate=8000 / ratetol=1.0 / qcomp=0.60 / qpmin=0 / qpmax=69 / qpstep=4 / cplxblur=20.0 / qblur=0.5 / ip_ratio=1.40 / pb_ratio=1.30 / aq=1:0.80
Язык : English
Default : Нет
Forced : Нет

Аудио #1
Идентификатор : 2
Формат : AC-3
Формат/Информация : Audio Coding 3
Расширение режима : CM (complete main)
Параметр Endianness формата : Big
Идентификатор кодека : A_AC3
Продолжительность : 1 ч. 29 м.
Вид битрейта : Постоянный
Битрейт : 384 Кбит/сек
Каналы : 6 каналов
Расположение каналов : Front: L C R, Side: L R, LFE
Частота : 48,0 КГц
Частота кадров : 31,250 кадров/сек (1536 spf)
Метод сжатия : С потерями
Размер потока : 246 Мбайт (4%)
Заголовок : Dub R5 «CD Land»
Язык : Russian
Default : Нет
Forced : Нет

Аудио #2
Идентификатор : 3
Формат : AC-3
Формат/Информация : Audio Coding 3
Расширение режима : CM (complete main)
Параметр Endianness формата : Big
Идентификатор кодека : A_AC3
Продолжительность : 1 ч. 29 м.
Вид битрейта : Постоянный
Битрейт : 640 Кбит/сек
Каналы : 6 каналов
Расположение каналов : Front: L C R, Side: L R, LFE
Частота : 48,0 КГц
Частота кадров : 31,250 кадров/сек (1536 spf)
Метод сжатия : С потерями
Размер потока : 411 Мбайт (7%)
Язык : English
Default : Нет
Forced : Нет

Текст #1
Идентификатор : 4
Формат : UTF-8
Идентификатор кодека : S_TEXT/UTF8
Идентификатор кодека/Информация : UTF-8 Plain Text
Язык : English
Default : Нет
Forced : Нет

Текст #2
Идентификатор : 5
Формат : UTF-8
Идентификатор кодека : S_TEXT/UTF8
Идентификатор кодека/Информация : UTF-8 Plain Text
Язык : German
Default : Нет
Forced : Нет



_________________
Проголосуй за трекер Открытый торрент трекер - RUS-MEDIA.ORG

Проголосуй Открытый торрент трекер - RUS-MEDIA.ORG


Вернуться к началу
 Профиль Отправить личное сообщение  
 
   Похожие торренты   Автор   Торрент   Размер 
В этой теме нет новых непрочитанных сообщений. Кольт 45 / Colt 45 [Боевик, триллер, драма, 2014] BDRip 1080p, Mvo+Sub

salma3

136 | 95

7.54 ГБ

В этой теме нет новых непрочитанных сообщений. Вне закона / Gunday (Али Аббас Зафар) [боевик, триллер, драма, 2014] BDRip 1080p, Mvo

Dracon

12 | 3

13.14 ГБ

В этой теме нет новых непрочитанных сообщений. Воздушный маршал / Non-Stop [детектив, триллер, боевик, 2014] BDRip 1080p, Dub [Open Matte]

salma3

0 | 1

17.14 ГБ

В этой теме нет новых непрочитанных сообщений. Драйвер на ночь  / Stretch (Джо Карнахан) [боевик, триллер, комедия, 2014] BDRip 1080p, dub+sub [Чистый звук]

Dracon

1 | 1

6.72 ГБ

В этой теме нет новых непрочитанных сообщений. Ночь покера / Poker Night (Грег Френсис) [боевик, триллер, криминал, 2014] BDRip 1080p, Mvo

Dracon

32 | 2

7.79 ГБ

В этой теме нет новых непрочитанных сообщений. Люди Икс: Дни минувшего будущего / X-Men: Days of Future Past [фантастика, боевик, триллер, 2014] BDRip-HEVC 1080p, Dub [Rogue Cut]

salma3

0 | 0

6.98 ГБ

В этой теме нет новых непрочитанных сообщений. Женский дом / GirlHouse [триллер, 2014] BDRip 1080p, Mvo

salma3

181 | 57

8.56 ГБ


Начать новую тему Ответить на тему  [ 1 сообщение ] 




Для Мосгорсуда, Роскомнадзора и рекламодателей:: mosgorsud-torrent[собачка]yandex.ru
cron