Торрент файл
скачать торрент магнет ссылка Добавлен: 17 сен 2017, 20:55
Размер: 22.18 ГБ
Сидеров: 7
Личеров: 3
Статус: (salma3)
Автор

СообщениеДобавлено: 17 сен 2017, 20:55 

Не в сети
Супермодератор
Аватара пользователя
Дата регистрации:
15 фев 2012, 16:44
Возраст: 28
Спасибо: 7290 / 2147
Сообщения: 70618
Год выхода: 1992
Жанр: Боевик, фантастика
Режиссер: Стюарт Гордон

В ролях: Кристофер Ламберт, Кертвуд Смит, Лорин Локлин, Клифтон Коллинз мл., Линкольн Килпэтрик, Джеффри Комбс, Том Таулз, Вернон Уэллс, Кэролин Перди-Гордон, Алан Зитнер, Денни Гордон, Эрик Брайант Уэллс, Драгици Деберт, Хайди Стейн, Питер Ламб, Трой Хантер, Питер Маршалл, Майкл Симпсон, Трэйси Мартин, Анника Томас, Сэм Коппинг

О фильме:
2017 год. Жизнь на Земле стала тяжела и жестока. Природные ресурсы на исходе, а население чудовищно увеличилось. Результат всего этого — строгий режим и новый закон о том, что женщина может иметь только одного ребенка. После смерти первенца, Бренник и его жена Карен нарушают закон и ждут рождения второго ребенка. Их заключают в Крепость, самую изощренную тюрьму с максимальной степенью защиты, из которой еще никому не удавалось выбраться. Подвергнутый чудовищным пыткам, Бренник решает бежать любой ценой.



Страна: США, Австралия
Продолжительность: 01:35:08
Перевод: Дублированный, профессиональный многоголосый, авторский одноголосый

Файл
Формат: MKV
Качество: BDRemux 1080p
Видео: MPEG-4 AVC, 27208 Кбит/с, 1920x1080, 23.976 кадр/с
Звук:
1: Russian: 48 kHz, AC3, 2/0 (L,R) ch, ~192.00 kbps avg |Многоголосый закадровый, Амальгама|
2: Russian: 48 kHz, AC3, 2/0 (L,R) ch, ~192.00 kbps avg |Многоголосый закадровый, Нева-1|
3: Russian: 48 kHz, AC3, 2/0 (L,R) ch, ~192.00 kbps avg |Дубляж, Хлопушка|
4: Russian: 48 kHz, AC3, 2/0 (L,R) ch, ~192.00 kbps avg |Одноголосый закадровый, В. Горчаков|
5: Russian: 48 kHz, AC3, 2/0 (L,R) ch, ~192.00 kbps avg |Одноголосый закадровый, Л. Володарский|
6: Russian: 48 kHz/24-bit, DTS-HD MA 2.0, ~1670.00 kbps avg |Одноголосый закадровый, Ю. Сербин|
7: Russian: 48 kHz/24-bit, DTS-HD MA 2.0, ~1653.00 kbps avg |Одноголосый закадровый, А. Гаврилов|
8: English: 48 kHz/24-bit, DTS-HD MA 2.0, ~1872.00 kbps avg |Original|
Субтитры: Русские, английские

General
Complete name : H:TorrentКрепость. Fortress (1992) BDRemux.mkv
Format : Matroska
File size : 22.2 GiB
Duration : 1h 35mn
Overall bit rate : 33.4 Mbps
Movie name : Крепость / Fortress (1992) BDRemux by ~Буйный Славик~
Encoded date : UTC 2017-09-17 14:33:25
Writing application : mkvmerge v4.9.1 ('Ich will') сборка от Jul 11 2011 23:53:15
Writing library : libebml v1.2.1 + libmatroska v1.1.1

Video
ID : 1
Format : AVC
Format/Info : Advanced Video Codec
Format profile : High@L4.1
Format settings, CABAC : Yes
Format settings, ReFrames : 4 frames
Muxing mode : Container profile=Unknown@4.1
Codec ID : V_MPEG4/ISO/AVC
Duration : 1h 35mn
Width : 1 920 pixels
Height : 1 080 pixels
Display aspect ratio : 16:9
Frame rate : 23.976 fps
Standard : NTSC
Resolution : 24 bits
Colorimetry : 4:2:0
Scan type : Progressive
Title : Крепость / Fortress (1992) BDRemux

Audio #1
ID : 2
Format : AC-3
Format/Info : Audio Coding 3
Codec ID : A_AC3
Duration : 1h 35mn
Bit rate mode : Constant
Bit rate : 192 Kbps
Channel(s) : 2 channels
Channel positions : L R
Sampling rate : 48.0 KHz
Stream size : 131 MiB (1%)
Title : AC3, 2/0 (L,R) ch, ~192.00 kbps avg |Многоголосый закадровый, Амальгама|
Language : Russian

Audio #2
ID : 3
Format : AC-3
Format/Info : Audio Coding 3
Codec ID : A_AC3
Duration : 1h 35mn
Bit rate mode : Constant
Bit rate : 192 Kbps
Channel(s) : 2 channels
Channel positions : L R
Sampling rate : 48.0 KHz
Stream size : 131 MiB (1%)
Title : AC3, 2/0 (L,R) ch, ~192.00 kbps avg |Многоголосый закадровый, Нева-1|
Language : Russian

Audio #3
ID : 4
Format : AC-3
Format/Info : Audio Coding 3
Codec ID : A_AC3
Duration : 1h 35mn
Bit rate mode : Constant
Bit rate : 192 Kbps
Channel(s) : 2 channels
Channel positions : L R
Sampling rate : 48.0 KHz
Stream size : 131 MiB (1%)
Title : AC3, 2/0 (L,R) ch, ~192.00 kbps avg |Дубляж, Хлопушка|
Language : Russian

Audio #4
ID : 5
Format : AC-3
Format/Info : Audio Coding 3
Codec ID : A_AC3
Duration : 1h 35mn
Bit rate mode : Constant
Bit rate : 192 Kbps
Channel(s) : 2 channels
Channel positions : L R
Sampling rate : 48.0 KHz
Stream size : 131 MiB (1%)
Title : AC3, 2/0 (L,R) ch, ~192.00 kbps avg |Одноголосый закадровый, В. Горчаков|
Language : Russian

Audio #5
ID : 6
Format : AC-3
Format/Info : Audio Coding 3
Codec ID : A_AC3
Duration : 1h 35mn
Bit rate mode : Constant
Bit rate : 192 Kbps
Channel(s) : 2 channels
Channel positions : L R
Sampling rate : 48.0 KHz
Stream size : 131 MiB (1%)
Title : AC3, 2/0 (L,R) ch, ~192.00 kbps avg |Одноголосый закадровый, Л. Володарский|
Language : Russian

Audio #6
ID : 7
Format : DTS
Format/Info : Digital Theater Systems
Format profile : MA
Codec ID : A_DTS
Duration : 1h 35mn
Bit rate mode : Variable
Channel(s) : 2 channels
Channel positions : Front: L, R
Sampling rate : 48.0 KHz
Resolution : 24 bits
Title : DTS-HD MA 2.0, ~1670.00 kbps avg |Одноголосый закадровый, Ю. Сербин|
Language : Russian

Audio #7
ID : 8
Format : DTS
Format/Info : Digital Theater Systems
Format profile : MA
Codec ID : A_DTS
Duration : 1h 35mn
Bit rate mode : Variable
Channel(s) : 2 channels
Channel positions : Front: L, R
Sampling rate : 48.0 KHz
Resolution : 24 bits
Title : DTS-HD MA 2.0, ~1653.00 kbps avg |Одноголосый закадровый, А. Гаврилов|
Language : Russian

Audio #8
ID : 9
Format : DTS
Format/Info : Digital Theater Systems
Format profile : MA
Codec ID : A_DTS
Duration : 1h 35mn
Bit rate mode : Variable
Channel(s) : 2 channels
Channel positions : Front: L, R
Sampling rate : 48.0 KHz
Resolution : 24 bits
Title : DTS-HD MA 2.0, ~1872.00 kbps avg |Original|

Text #1
ID : 10
Format : S_HDMV/PGS
Codec ID : S_HDMV/PGS
Title : Rus
Language : Russian

Text #2
ID : 11
Format : S_HDMV/PGS
Codec ID : S_HDMV/PGS
Title : Eng


_________________
Проголосуй за трекер Открытый торрент трекер - RUS-MEDIA.ORG

Проголосуй Открытый торрент трекер - RUS-MEDIA.ORG


Вернуться к началу
 Профиль Отправить личное сообщение  
 
   Похожие торренты   Автор   Торрент   Размер 
В этой теме нет новых непрочитанных сообщений. Крепость / Fortress [Боевик, фантастика, 1992] HDRip-AVC, Mvo

salma3

16 | 3

744.92 МБ

В этой теме нет новых непрочитанных сообщений. Крепость / Fortress [Фантастика, боевик, триллер, 1992] BDRip 720p, Dvo

salma3

23 | 4

9.3 ГБ

В этой теме нет новых непрочитанных сообщений. Доктор Мордрид / Doctor Mordrid [фантастика, фэнтези, боевик, триллер, 1992] BDRemux 1080p, Avo

salma3

22 | 10

13.19 ГБ

В этой теме нет новых непрочитанных сообщений. Миссия правосудия / Mission Of Justice [Боевик, 1992] BDRemux 1080p, Mvo

salma3

0 | 0

18.79 ГБ

В этой теме нет новых непрочитанных сообщений. Пассажир 57 / Passenger 57 [Боевик, триллер, криминал, 1992] BDRemux 1080p, Dub

salma3

4 | 1

17.37 ГБ

В этой теме нет новых непрочитанных сообщений. Игры патриотов / Patriot Games [Боевик, триллер, криминал, экранизация, 1992] BDRemux 1080p, Mvo

salma3

0 | 1

38.77 ГБ

В этой теме нет новых непрочитанных сообщений. Немезида / Nemesis [Фантастика, боевик, триллер, 1992] BDRip 1080p, Dvo

salma3

81 | 27

7.05 ГБ


Начать новую тему Ответить на тему  [ 1 сообщение ] 




Для Мосгорсуда, Роскомнадзора и рекламодателей:: mosgorsud-torrent[собачка]yandex.ru
cron