Торрент файл
скачать торрент магнет ссылка Добавлен: 17 сен 2017, 11:09
Размер: 11.42 ГБ
Сидеров: 14
Личеров: 4
Статус: (salma3)
Автор

СообщениеДобавлено: 17 сен 2017, 11:09 

Не в сети
Супермодератор
Аватара пользователя
Дата регистрации:
15 фев 2012, 16:44
Возраст: 28
Спасибо: 7163 / 2147
Сообщения: 61631
Год выхода: 2008
Жанр: Фэнтези, боевик, мелодрама
Режиссер: Роб Минкофф

В ролях: Джет Ли, Джеки Чан, Майкл Ангарано, Бингбинг Ли, Ифэй Лю, Хуана Коллиньон, Морган Бенуа, Джек Пособец, Томас МакДонелл, Жи Ма Гуи

О фильме:
Бостон, наше время. Подросток Джейсон (Майкл Ангарано) очень любит смотреть китайские фильм про кун-фу, которые он покупает в китайском квартале. Как-то в один день с ним произошло два важных события – он нашел на складе шест легендарного китайского героя царя обезьян и спасаясь от хулиганов попал в Древний Китай, где правит Нефритовый Военачальник (Коллин Чоу)…



Страна: США, Китай
Продолжительность: 01:44:26
Перевод(ы): Дублированный
#2: Профессиональный многоголосый | С.Р.И.
#3: Авторский | Ю. Немахов

Файл
Качество: BDRip 1080p
Видео: MPEG-4 AVC, 1920x800, 13.1 Mbit/s, 23.976 fps
Аудио #01: 48 kHz, AC3, 5.1, 640 Kbps | Дублированный | RUS |
Аудио #02: 48 kHz, AC3, 5.1, 640 Kbps | Профессиональный многоголосый | RUS |
Аудио #03: 48 kHz, AC3, 5.1, 640 Kbps | Авторский | RUS |
Аудио #04: 48 kHz, AC3, 5.1, 640 Kbps | Оригинал | ENG |
Субтитры: Русские, английские

General
Unique ID : 210939715232100831022541979953343097708 (0x9EB182EB47EA63408E1272B7525DEB6C)
Complete name : F:VideoForbidden.Kingdom.2008.BDRip.1080p.ExKinoRay.mkv
Format : Matroska
Format version : Version 4 / Version 2
File size : 11.4 GiB
Duration : 1 h 44 min
Overall bit rate : 15.7 Mb/s
Encoded date : UTC 2017-09-17 06:30:40
Writing application : mkvmerge v15.0.0 ('Duel with the Devil') 64-bit
Writing library : libebml v1.3.5 + libmatroska v1.4.5

Video
ID : 1
Format : AVC
Format/Info : Advanced Video Codec
Format profile : High@L4.1
Format settings, CABAC : Yes
Format settings, RefFrames : 5 frames
Codec ID : V_MPEG4/ISO/AVC
Duration : 1 h 44 min
Bit rate : 13.1 Mb/s
Width : 1 920 pixels
Height : 800 pixels
Display aspect ratio : 2.40:1
Frame rate mode : Constant
Frame rate : 23.976 (24000/1001) FPS
Color space : YUV
Chroma subsampling : 4:2:0
Bit depth : 8 bits
Scan type : Progressive
Bits/(Pixel*Frame) : 0.356
Stream size : 9.55 GiB (84%)
Writing library : x264 core 148 r2705 3f5ed56
Encoding settings : cabac=1 / ref=5 / deblock=1:-3:-3 / analyse=0x3:0x133 / me=umh / subme=11 / psy=1 / psy_rd=1.05:0.05 / mixed_ref=1 / me_range=32 / chroma_me=1 / trellis=2 / 8x8dct=1 / cqm=0 / deadzone=21,11 / fast_pskip=0 / chroma_qp_offset=-3 / threads=22 / lookahead_threads=4 / sliced_threads=0 / nr=0 / decimate=0 / interlaced=0 / bluray_compat=0 / constrained_intra=0 / bframes=8 / b_pyramid=2 / b_adapt=2 / b_bias=0 / direct=3 / weightb=1 / open_gop=0 / weightp=2 / keyint=240 / keyint_min=23 / scenecut=40 / intra_refresh=0 / rc_lookahead=50 / rc=2pass / mbtree=0 / bitrate=13100 / ratetol=1.0 / qcomp=0.60 / qpmin=0 / qpmax=69 / qpstep=4 / cplxblur=20.0 / qblur=0.5 / vbv_maxrate=50000 / vbv_bufsize=62500 / nal_hrd=none / filler=0 / ip_ratio=1.40 / pb_ratio=1.30 / aq=3:0.80
Language : English
Default : Yes
Forced : No

Audio #1
ID : 2
Format : AC-3
Format/Info : Audio Coding 3
Format settings, Endianness : Big
Codec ID : A_AC3
Duration : 1 h 44 min
Bit rate mode : Constant
Bit rate : 640 kb/s
Channel(s) : 6 channels
Channel positions : Front: L C R, Side: L R, LFE
Sampling rate : 48.0 kHz
Frame rate : 31.250 FPS (1536 SPF)
Bit depth : 16 bits
Compression mode : Lossy
Stream size : 478 MiB (4%)
Title : Dub
Language : Russian
Service kind : Complete Main
Default : Yes
Forced : No

Audio #2
ID : 3
Format : AC-3
Format/Info : Audio Coding 3
Format settings, Endianness : Big
Codec ID : A_AC3
Duration : 1 h 44 min
Bit rate mode : Constant
Bit rate : 640 kb/s
Channel(s) : 6 channels
Channel positions : Front: L C R, Side: L R, LFE
Sampling rate : 48.0 kHz
Frame rate : 31.250 FPS (1536 SPF)
Bit depth : 16 bits
Compression mode : Lossy
Stream size : 478 MiB (4%)
Title : MVO
Language : Russian
Service kind : Complete Main
Default : No
Forced : No

Audio #3
ID : 4
Format : AC-3
Format/Info : Audio Coding 3
Format settings, Endianness : Big
Codec ID : A_AC3
Duration : 1 h 44 min
Bit rate mode : Constant
Bit rate : 640 kb/s
Channel(s) : 6 channels
Channel positions : Front: L C R, Side: L R, LFE
Sampling rate : 48.0 kHz
Frame rate : 31.250 FPS (1536 SPF)
Bit depth : 16 bits
Compression mode : Lossy
Stream size : 478 MiB (4%)
Title : AVO
Language : Russian
Service kind : Complete Main
Default : No
Forced : No

Audio #4
ID : 5
Format : AC-3
Format/Info : Audio Coding 3
Format settings, Endianness : Big
Codec ID : A_AC3
Duration : 1 h 44 min
Bit rate mode : Constant
Bit rate : 640 kb/s
Channel(s) : 6 channels
Channel positions : Front: L C R, Side: L R, LFE
Sampling rate : 48.0 kHz
Frame rate : 31.250 FPS (1536 SPF)
Bit depth : 16 bits
Compression mode : Lossy
Stream size : 478 MiB (4%)
Title : Original
Language : English
Service kind : Complete Main
Default : No
Forced : No

Text #1
ID : 6
Format : UTF-8
Codec ID : S_TEXT/UTF8
Codec ID/Info : UTF-8 Plain Text
Duration : 1 h 35 min
Bit rate : 42 b/s
Count of elements : 462
Stream size : 29.9 KiB (0%)
Title : Full
Language : Russian
Default : No
Forced : No

Text #2
ID : 7
Format : UTF-8
Codec ID : S_TEXT/UTF8
Codec ID/Info : UTF-8 Plain Text
Duration : 1 h 32 min
Bit rate : 25 b/s
Count of elements : 643
Stream size : 17.3 KiB (0%)
Title : Full
Language : English
Default : No
Forced : No

Menu
00:00:00.000 : en:Opening
00:08:36.432 : en:Discoveries
00:15:04.903 : en:The Monkey King
00:19:13.152 : en:Escape
00:27:29.856 : en:Jet And Jackie
00:36:53.585 : en:Two Tigers
00:45:04.660 : en:Don't Forget
00:50:27.524 : en:The Monastary
00:54:06.952 : en:Combat
00:59:50.670 : en:Monkey King's Turn
01:04:47.258 : en:Back In the USA
01:09:44.597 : en:Credits
01:14:07.651 : en:"What's wrong?"
01:21:14.536 : en:On the Job
01:28:23.423 : en:End of Shift
01:32:19.158 : en:Home


Релиз от: Автор релиза:


_________________
Проголосуй за трекер Открытый торрент трекер - RUS-MEDIA.ORG

Проголосуй Открытый торрент трекер - RUS-MEDIA.ORG


Вернуться к началу
 Профиль Отправить личное сообщение  
 
   Похожие торренты   Автор   Торрент   Размер 
В этой теме нет новых непрочитанных сообщений. По волчьим законам / Царство зверей / Animal Kingdom [Драма, криминал, 2010] BDRip 1080p, Mvo+Sub

salma3

43 | 15

9.95 ГБ

В этой теме нет новых непрочитанных сообщений. Запретное Царство [10.5.16] [Action, RPG, MMO, 2016] [Лицензия]

holokofi

0 | 1

539.56 МБ

В этой теме нет новых непрочитанных сообщений. Запретное Царство [27.10.16] [Action, RPG, MMO, 2016] [Лицензия]

malvihka

0 | 1

515.75 МБ

В этой теме нет новых непрочитанных сообщений. Nat Geo Wild: Царство океанов / Kingdom of the oceans [01-04] (2011) HDTVRip-AVC | P1

salma3

0 | 0

3.39 ГБ

В этой теме нет новых непрочитанных сообщений. Nat Geo Wild: Царство океанов / Kingdom of the oceans [01-04] (2011) HDTV 1080i | P1

salma3

0 | 0

9.04 ГБ

В этой теме нет новых непрочитанных сообщений. Кинджайт: Запретные темы / Kinjite: Forbidden Subjects [Боевик, триллер, драма, криминал, 1989] BDRip 1080p, Mvo+Avo+Sub

salma3

50 | 27

12.49 ГБ

В этой теме нет новых непрочитанных сообщений. Nat Geo Wild: Хищники Аляски. Царство китов-убийц / Alaska's Deadliest. Killer Whale Kingdom (2018) HDTVRip-AVC | P1

salma3

0 | 0

827.79 МБ


Начать новую тему Ответить на тему  [ 1 сообщение ] 




Для Мосгорсуда, Роскомнадзора и рекламодателей:: mosgorsud-torrent[собачка]yandex.ru
cron