Торрент файл
скачать торрент магнет ссылка Добавлен: 16 сен 2017, 20:21
Размер: 9.28 ГБ
Сидеров: 266
Личеров: 88
Статус: (salma3)
Автор

СообщениеДобавлено: 16 сен 2017, 20:21 

Не в сети
Супермодератор
Аватара пользователя
Дата регистрации:
15 фев 2012, 16:44
Возраст: 28
Спасибо: 6642 / 2146
Сообщения: 45622
Год выпуска: 2006
Жанр: триллер, драма, мелодрама
Режиссер: Тодд Робинсон / Todd Robinson

В ролях: Джон Траволта , Джеймс Гандольфини , Джаред Лето , Сальма Хайек[/i] , Скотт Каан , Лора Дерн , Майкл Гэстон , Брюс МакВитти , Дэн Берд , Эндрю Е. Вилер , Элис Крайдж , Дагмара Доминчик

Сюжет фильма:
Основанная на реальных событиях история двух детективов, преследующих убийц Марту Бек и Раймона Мартинеза Фернандеза, известных под прозвищем «Одинокие сердца», орудовавших в США в конце 40-х годов.




Выпущено: Германия, США
Продолжительность: 01:47:36
Перевод: Профессиональный [многоголосый]

Качество: BDRip 1080p
Видео: 1916x816, 11071 Кбит/сек, 23,976 кадр/сек, 0,295 Бит/[Пиксели*Кадры]
Аудио №1: русский / AC3 / 5.1 / 48 kHz / 640 kbps /
Аудио №2: английский / AC3 / 5.1 / 48 kHz / 640 kbps /
Субтитры: русские, английские
Навигация по главам(Чаптеры): есть


Format : Matroska
Format version : Version 2
File size : 9.28 GiB
Duration : 1h 47mn
Overall bit rate : 12.3 Mbps
Movie name : Lonely Hearts.(2006).BDRip.1080p.[denis100]
Encoded date : UTC 2017-09-16 13:40:51
Writing application : mkvmerge v5.8.0 ('No Sleep / Pillow') built on Sep 2 2012 15:37:04
Writing library : libebml v1.2.3 + libmatroska v1.3.0

Video
ID : 1
Format : AVC
Format/Info : Advanced Video Codec
Format profile : High@L4.1
Format settings, CABAC : Yes
Format settings, ReFrames : 5 frames
Codec ID : V_MPEG4/ISO/AVC
Duration : 1h 47mn
Bit rate : 11.1 Mbps
Width : 1 916 pixels
Height : 816 pixels
Display aspect ratio : 2.35:1
Frame rate mode : Constant
Frame rate : 23.976 (24000/1001) fps
Color space : YUV
Chroma subsampling : 4:2:0
Bit depth : 8 bits
Scan type : Progressive
Bits/(Pixel*Frame) : 0.295
Stream size : 8.13 GiB (88%)
Title : Lonely Hearts.(2006).BDRip.1080p.[denis100]
Writing library : x264 core 152 r2851 ba24899
Encoding settings : cabac=1 / ref=5 / deblock=1:-3:-3 / analyse=0x3:0x133 / me=umh / subme=11 / psy=1 / psy_rd=1.00:0.05 / mixed_ref=1 / me_range=32 / chroma_me=1 / trellis=2 / 8x8dct=1 / cqm=0 / deadzone=21,11 / fast_pskip=0 / chroma_qp_offset=-3 / threads=6 / lookahead_threads=1 / sliced_threads=0 / nr=0 / decimate=1 / interlaced=0 / bluray_compat=0 / constrained_intra=0 / bframes=9 / b_pyramid=2 / b_adapt=2 / b_bias=0 / direct=3 / weightb=1 / open_gop=0 / weightp=2 / keyint=240 / keyint_min=23 / scenecut=40 / intra_refresh=0 / rc=2pass / mbtree=0 / bitrate=11071 / ratetol=1.0 / qcomp=0.60 / qpmin=0 / qpmax=69 / qpstep=4 / cplxblur=20.0 / qblur=0.5 / ip_ratio=1.40 / pb_ratio=1.30 / aq=1:0.85
Language : English
Default : Yes
Forced : No

Audio #1
ID : 2
Format : AC-3
Format/Info : Audio Coding 3
Mode extension : CM (complete main)
Format settings, Endianness : Big
Codec ID : A_AC3
Duration : 1h 47mn
Bit rate mode : Constant
Bit rate : 640 Kbps
Channel(s) : 6 channels
Channel positions : Front: L C R, Side: L R, LFE
Sampling rate : 48.0 KHz
Frame rate : 31.250 fps (1536 spf)
Compression mode : Lossy
Stream size : 493 MiB (5%)
Title : MVO
Language : Russian
Default : Yes
Forced : No

Audio #2
ID : 3
Format : AC-3
Format/Info : Audio Coding 3
Mode extension : CM (complete main)
Format settings, Endianness : Big
Codec ID : A_AC3
Duration : 1h 47mn
Bit rate mode : Constant
Bit rate : 640 Kbps
Channel(s) : 6 channels
Channel positions : Front: L C R, Side: L R, LFE
Sampling rate : 48.0 KHz
Frame rate : 31.250 fps (1536 spf)
Compression mode : Lossy
Stream size : 493 MiB (5%)
Language : English
Default : No
Forced : No

Text #1
ID : 4
Format : UTF-8
Codec ID : S_TEXT/UTF8
Codec ID/Info : UTF-8 Plain Text
Language : Russian
Default : No
Forced : No

Text #2
ID : 5
Format : UTF-8
Codec ID : S_TEXT/UTF8
Codec ID/Info : UTF-8 Plain Text
Language : English
Default : No
Forced : No

Menu
00:00:00.000 : en:00:00:00.000
00:02:59.220 : en:00:02:59.220
00:08:17.955 : en:00:08:17.955
00:13:01.780 : en:00:13:01.780
00:17:02.730 : en:00:17:02.730
00:24:34.598 : en:00:24:34.598
00:27:44.788 : en:00:27:44.788
00:31:42.567 : en:00:31:42.567
00:38:49.452 : en:00:38:49.452
00:43:44.997 : en:00:43:44.997
00:50:04.167 : en:00:50:04.167
00:58:10.820 : en:00:58:10.820
01:03:05.573 : en:01:03:05.573
01:08:38.864 : en:01:08:38.864
01:14:36.722 : en:01:14:36.722
01:19:35.896 : en:01:19:35.896
01:27:22.654 : en:01:27:22.654
01:31:31.861 : en:01:31:31.861
01:35:36.856 : en:01:35:36.856
01:42:27.683 : en:01:42:27.683



Автор рипа: Группа:


_________________
Проголосуй за трекер Открытый торрент трекер - RUS-MEDIA.ORG

Проголосуй Открытый торрент трекер - RUS-MEDIA.ORG



реклама партнёра


Вернуться к началу
 Профиль Отправить личное сообщение  
 
   Похожие торренты   Автор   Торрент   Размер 
В этой теме нет новых непрочитанных сообщений. Одинокие сердца / Lonely Hearts [триллер, мелодрама, драма, криминал, 2006] HDRip, Dvo

salma3

134 | 9

1.45 ГБ

В этой теме нет новых непрочитанных сообщений. Одинокие отважны / Lonely are the brave [драма, вестерн, 1962] BDRemux 1080p, Avo+Sub

salma3

32 | 11

12.95 ГБ

В этой теме нет новых непрочитанных сообщений. Сердца в Атлантиде / Hearts in Atlantis [триллер, драма, детектив, 2001] WEB-DL 720p, Dub

salma3

24 | 16

4.6 ГБ

В этой теме нет новых непрочитанных сообщений. Сердца в Атлантиде / Hearts in Atlantis [триллер, драма, детектив, 2001] HDTVRip 1080, Dub

salma3

23 | 9

4.37 ГБ

В этой теме нет новых непрочитанных сообщений. Похищенные сердца / Captive Hearts [Триллер, детектив, 2005] DVDRip, Mvo

salma3

3 | 2

1.46 ГБ

В этой теме нет новых непрочитанных сообщений. Голодные сердца / Hungry Hearts (Саверио Костанзо / Saverio Costanzo)[2014г., Италия, драма, HDRip] avo

Alfredovich

71 | 6

1.43 ГБ

В этой теме нет новых непрочитанных сообщений. 3 сердца / 3 coeurs (Бенуа Жако) [Драма, 2014] BDRip 1080p, Mvo [лицензия]

Dracon

8 | 5

7.94 ГБ


Начать новую тему Ответить на тему  [ 1 сообщение ] 




Для Мосгорсуда, Роскомнадзора и рекламодателей:: mosgorsud-torrent[собачка]yandex.ru