Торрент файл
скачать торрент магнет ссылка Добавлен: 16 сен 2017, 12:31
Размер: 12.6 ГБ
Сидеров: 21
Личеров: 23
Статус: (salma3)
Автор

СообщениеДобавлено: 16 сен 2017, 12:31 

В сети
Супермодератор
Аватара пользователя
Дата регистрации:
15 фев 2012, 16:44
Возраст: 29
Спасибо: 7328 / 2147
Сообщения: 73374
Год выпуска: 1965
Жанр: Мелодрама, комедия, приключения
Режиссер: Блэйк Эдвардс

В ролях: Джек Леммон, Тони Кёртис, Натали Вуд, Питер Фальк, Кинэн Уинн, Артур О’Коннелл, Вивиан Вэнс, Дороти Провайн, Ларри Сторч, Росс Мартин, Джордж Макреди, Марвин Каплан, Хэл Смит, Денвер Пайл, Уильям Брайант, Кен Уэльс, Ричард Александр, Грег Бенедикт, Пол Брайар, Роберт Карсон

Описание: Начало ХХ века. Знаменитый испытатель, рыцарь без страха и упрека, всегда с иголочки одетый во все белое, Лесли, по прозвищу Великий, организует беспрецедентный автопробег Нью-Йорк-Аляска-Сибирь-Карпаты-Париж. Завистливый и злобный изобретатель профессор Фэйт, со своим верным слугой Максом (Питер Фальк — незабвенный инспектор Коломбо), принимает вызов Лесли. Он готов на все, лишь бы тот не добрался до финиша живым. Но какое приключение без женщины! И она появляется — красотка Мэгги обещает редактору ежедневной газеты сделать сенсационный репортаж с места событий и отправляется навстречу опасностям за рулем своей колымаги. Гонка стартовала, герой, красавица и злодей отправляются в путь...



Выпущено: США / Jalem Productions, Patricia, Reynard, Warner Bros. Pictures
Продолжительность: 02:39:58
Перевод: Профессиональный [многоголосый], дублированный

Файл
Качество: BDRip 1080p
Видео: MPEG-4 AVC, 8800 Кбит/с, 1920x794, 23.976 кадр/с
Аудио #1: Русский (AC3, 6 ch, 384 Кбит/с) / Профессиональный многоголосый (DVD Magic)
Аудио #2: Русский (AC3, 6 ch, 384 Кбит/с) / Профессиональный многоголосый (Film Prestige)
Аудио #3: Русский (AC3, 2 ch, 192 Кбит/с) / Дублированный (Советский дубляж, со вставками многоголосого перевода в вырезанных сценах)
Аудио #4: Английский (DTS, 6 ch, 1509 Кбит/с)
Субтитры: Русские, английские


x264 [info]: frame I:1507 Avg QP:16.48 size:200781
x264 [info]: frame P:50038 Avg QP:19.20 size: 82369
x264 [info]: frame B:178577 Avg QP:20.47 size: 34355
x264 [info]: consecutive B-frames: 1.6% 2.3% 8.3% 22.6% 17.8% 41.2% 3.5% 1.4% 1.4%
******************************************************************************************************************************
Общее
Уникальный идентификатор : 217659538263063295080680745405554315096 (0xA3BFB3C625A1DC9D88BE3024412B4F58)
Полное имя : D:Mои раздачиBol'shie.gonki.1965.BDRip.1080p-MediaClub.mkv
Формат : Matroska
Версия формата : Version 4 / Version 2
Размер файла : 12,6 Гбайт
Продолжительность : 2 ч. 39 м.
Общий поток : 11,3 Мбит/сек
Название фильма : -=MediaClub-kaspr=-
Дата кодирования : UTC 2014-09-19 06:12:43
Программа кодирования : mkvmerge v6.9.1 ('Blue Panther') 64bit built on Apr 18 2014 18:23:38
Библиотека кодирования : libebml v1.3.0 + libmatroska v1.4.1

Видео
Идентификатор : 1
Формат : AVC
Формат/Информация : Advanced Video Codec
Профиль формата : High@L4.1
Параметр CABAC формата : Да
Параметр ReFrames формата : 5 кадров
Идентификатор кодека : V_MPEG4/ISO/AVC
Продолжительность : 2 ч. 39 м.
Битрейт : 8800 Кбит/сек
Ширина : 1920 пикселей
Высота : 794 пикселя
Соотношение сторон : 2,40:1
Режим частоты кадров : Постоянный
Частота кадров : 23,976 кадра/сек
Цветовое пространство : YUV
Субдискретизация насыщенности : 4:2:0
Битовая глубина : 8 бит
Тип развёртки : Прогрессивная
Бит/(Пиксели*Кадры) : 0.241
Размер потока : 9,59 Гбайт (76%)
Заголовок : -=MediaClub-kaspr=-
Библиотека кодирования : x264 core 142 r2431+42 c69a006 tMod [8-bit@4:2:0 X86_64]
Настройки программы : cabac=1 / ref=5 / deblock=1:-3:-3 / analyse=0x3:0x113 / me=umh / subme=11 / psy=1 / fade_compensate=0.00 / psy_rd=1.00:0.20 / mixed_ref=1 / me_range=32 / chroma_me=1 / trellis=2 / 8x8dct=1 / cqm=0 / deadzone=21,11 / fast_pskip=0 / chroma_qp_offset=-3 / threads=12 / lookahead_threads=2 / sliced_threads=0 / nr=0 / decimate=0 / interlaced=0 / bluray_compat=0 / constrained_intra=0 / fgo=0 / bframes=8 / b_pyramid=2 / b_adapt=2 / b_bias=0 / direct=3 / weightb=1 / open_gop=0 / weightp=2 / keyint=240 / keyint_min=23 / scenecut=40 / intra_refresh=0 / rc=2pass / mbtree=0 / bitrate=8800 / ratetol=1.0 / qcomp=0.60 / qpmin=0:0:0 / qpmax=69:69:69 / qpstep=4 / cplxblur=20.0 / qblur=0.5 / ip_ratio=1.40 / pb_ratio=1.30 / aq=4:0.80 / aq-sensitivity=10.00 / aq-factor=1.00:1.00:1.00 / aq2=0 / aq3=0
Default : Да
Forced : Нет

Аудио #1
Идентификатор : 2
Формат : AC-3
Формат/Информация : Audio Coding 3
Расширение режима : CM (complete main)
Параметр Endianness формата : Big
Идентификатор кодека : A_AC3
Продолжительность : 2 ч. 39 м.
Вид битрейта : Постоянный
Битрейт : 384 Кбит/сек
Каналы : 6 каналов
Расположение каналов : Front: L C R, Side: L R, LFE
Частота : 48,0 КГц
Битовая глубина : 16 бит
Метод сжатия : С потерями
Размер потока : 439 Мбайт (3%)
Заголовок : MVO (DVD Magic)
Язык : Russian
Default : Да
Forced : Нет

Аудио #2
Идентификатор : 3
Формат : AC-3
Формат/Информация : Audio Coding 3
Расширение режима : CM (complete main)
Параметр Endianness формата : Big
Идентификатор кодека : A_AC3
Продолжительность : 2 ч. 39 м.
Вид битрейта : Постоянный
Битрейт : 384 Кбит/сек
Каналы : 6 каналов
Расположение каналов : Front: L C R, Side: L R, LFE
Частота : 48,0 КГц
Битовая глубина : 16 бит
Метод сжатия : С потерями
Размер потока : 439 Мбайт (3%)
Заголовок : MVO (Film Prestige)
Язык : Russian
Default : Нет
Forced : Нет

Аудио #3
Идентификатор : 4
Формат : AC-3
Формат/Информация : Audio Coding 3
Расширение режима : CM (complete main)
Параметр Endianness формата : Big
Идентификатор кодека : A_AC3
Продолжительность : 2 ч. 39 м.
Вид битрейта : Постоянный
Битрейт : 192 Кбит/сек
Каналы : 2 канала
Расположение каналов : Front: L R
Частота : 48,0 КГц
Битовая глубина : 16 бит
Метод сжатия : С потерями
Размер потока : 220 Мбайт (2%)
Заголовок : Dub
Язык : Russian
Default : Нет
Forced : Нет

Аудио #4
Идентификатор : 5
Формат : DTS
Формат/Информация : Digital Theater Systems
Режим : 16
Параметр Endianness формата : Big
Идентификатор кодека : A_DTS
Продолжительность : 2 ч. 39 м.
Вид битрейта : Постоянный
Битрейт : 1509 Кбит/сек
Каналы : 6 каналов
Расположение каналов : Front: L C R, Side: L R, LFE
Частота : 48,0 КГц
Битовая глубина : 24 бит
Метод сжатия : С потерями
Размер потока : 1,69 Гбайт (13%)
Язык : English
Default : Нет
Forced : Нет

Текст #1
Идентификатор : 6
Формат : UTF-8
Идентификатор кодека : S_TEXT/UTF8
Идентификатор кодека/Информация : UTF-8 Plain Text
Язык : Russian
Default : Нет
Forced : Нет

Текст #2
Идентификатор : 7
Формат : UTF-8
Идентификатор кодека : S_TEXT/UTF8
Идентификатор кодека/Информация : UTF-8 Plain Text
Язык : English
Default : Нет
Forced : Нет

Меню
00:00:00.000 : en:Chapter 01
00:03:43.890 : en:Chapter 02
00:06:39.440 : en:Chapter 03
00:10:16.449 : en:Chapter 04
00:13:20.966 : en:Chapter 05
00:15:49.615 : en:Chapter 06
00:18:22.935 : en:Chapter 07
00:21:00.884 : en:Chapter 08
00:23:37.124 : en:Chapter 09
00:25:57.138 : en:Chapter 10
00:29:56.795 : en:Chapter 11
00:32:50.635 : en:Chapter 12
00:37:45.179 : en:Chapter 13
00:42:17.243 : en:Chapter 14
00:45:31.019 : en:Chapter 15
00:51:17.240 : en:Chapter 16
00:53:04.973 : en:Chapter 17
00:57:24.983 : en:Chapter 18
01:00:24.662 : en:Chapter 19
01:05:32.762 : en:Chapter 20
01:11:17.856 : en:Chapter 21
01:16:49.313 : en:Chapter 22
01:21:54.075 : en:Chapter 23
01:25:27.455 : en:Chapter 24
01:28:23.214 : en:Chapter 25
01:30:21.874 : en:Chapter 26
01:32:09.106 : en:Chapter 27
01:36:54.517 : en:Chapter 28
01:40:46.165 : en:Chapter 29
01:44:34.643 : en:Chapter 30
01:48:08.440 : en:Chapter 31
01:52:05.218 : en:Chapter 32
01:55:02.687 : en:Chapter 33
01:59:18.151 : en:Chapter 34
02:03:55.261 : en:Chapter 35
02:07:52.206 : en:Chapter 36
02:13:24.955 : en:Chapter 37
02:17:46.132 : en:Chapter 38
02:21:18.178 : en:Chapter 39
02:26:14.557 : en:Chapter 40
02:29:51.482 : en:Chapter 41
02:33:31.202 : en:Chapter 42
02:36:05.898 : en:Chapter 43
02:38:08.479 : en:Chapter 44


Релиз: |


_________________
Проголосуй за трекер Открытый торрент трекер - RUS-MEDIA.ORG

Проголосуй Открытый торрент трекер - RUS-MEDIA.ORG


Вернуться к началу
 Профиль Отправить личное сообщение  
 
   Похожие торренты   Автор   Торрент   Размер 
В этой теме нет новых непрочитанных сообщений. Большие гонки / The Great Race [мелодрама, комедия, приключения, 1965] BDRip, Mvo

salma3

36 | 5

2.18 ГБ

В этой теме нет новых непрочитанных сообщений. Большие гонки / The Great Race [Мелодрама, комедия, приключения, 1965] HDRip-AVC, Dub

salma3

22 | 4

1.45 ГБ

В этой теме нет новых непрочитанных сообщений. Смертельные гонки 2000 года / Death Race 2000 [фантастика, боевик, комедия, спорт, 1975] BDRip-AVC, Avo

salma3

28 | 11

2.1 ГБ

В этой теме нет новых непрочитанных сообщений. Воздушные приключения / Those Magnificent Men in Their Flying Machines [Комедия, приключения, семейный, 1965] BDRemux 1080p, Dub

salma3

0 | 0

35.17 ГБ

В этой теме нет новых непрочитанных сообщений. Чингиз Хан / Genghis Khan [Исторический, драма, приключения, 1965] BDRip 1080p, Mvo

salma3

0 | 0

12.39 ГБ

В этой теме нет новых непрочитанных сообщений. Крысиные бега / Rat Race [комедия, приключения, 2001] WEB-DL 1080p, Dub

salma3

0 | 0

5.75 ГБ

В этой теме нет новых непрочитанных сообщений. Крысиные бега / Rat Race [Комедия, приключения, 2001] WEB-DL 1080p, Dub

salma3

0 | 0

13.16 ГБ


Начать новую тему Ответить на тему  [ 1 сообщение ] 




Для Мосгорсуда, Роскомнадзора и рекламодателей:: mosgorsud-torrent[собачка]yandex.ru
cron